  0
SECTION
  2
HEADER
  9
$ACADVER
  1
AC1027
  9
$ACADMAINTVER
 70
    55
  9
$DWGCODEPAGE
  3
ANSI_1252
  9
$LASTSAVEDBY
  1
jackson
  9
$REQUIREDVERSIONS
160
                 0
  9
$INSBASE
 10
0.0
 20
0.0
 30
0.0
  9
$EXTMIN
 10
259.9839497912674
 20
279.1386047926963
 30
0.0
  9
$EXTMAX
 10
1476.604417406211
 20
558.5316799703067
 30
0.0
  9
$LIMMIN
 10
0.0
 20
0.0
  9
$LIMMAX
 10
1000.0
 20
750.0
  9
$ORTHOMODE
 70
     1
  9
$REGENMODE
 70
     1
  9
$FILLMODE
 70
     1
  9
$QTEXTMODE
 70
     0
  9
$MIRRTEXT
 70
     0
  9
$LTSCALE
 40
1.0
  9
$ATTMODE
 70
     1
  9
$TEXTSIZE
 40
0.2
  9
$TRACEWID
 40
0.05
  9
$TEXTSTYLE
  7
Standard
  9
$CLAYER
  8
0
  9
$CELTYPE
  6
ByLayer
  9
$CECOLOR
 62
   256
  9
$CELTSCALE
 40
1.0
  9
$DISPSILH
 70
     0
  9
$DIMSCALE
 40
60.0
  9
$DIMASZ
 40
0.18
  9
$DIMEXO
 40
0.0625
  9
$DIMDLI
 40
0.38
  9
$DIMRND
 40
0.0
  9
$DIMDLE
 40
0.0
  9
$DIMEXE
 40
0.18
  9
$DIMTP
 40
0.0
  9
$DIMTM
 40
0.0
  9
$DIMTXT
 40
0.18
  9
$DIMCEN
 40
0.09
  9
$DIMTSZ
 40
0.0
  9
$DIMTOL
 70
     0
  9
$DIMLIM
 70
     0
  9
$DIMTIH
 70
     1
  9
$DIMTOH
 70
     1
  9
$DIMSE1
 70
     0
  9
$DIMSE2
 70
     0
  9
$DIMTAD
 70
     0
  9
$DIMZIN
 70
     0
  9
$DIMBLK
  1

  9
$DIMASO
 70
     1
  9
$DIMSHO
 70
     1
  9
$DIMPOST
  1
 MM\X
  9
$DIMAPOST
  1
 IN.
  9
$DIMALT
 70
     1
  9
$DIMALTD
 70
     1
  9
$DIMALTF
 40
0.0393700787401575
  9
$DIMLFAC
 40
1.0
  9
$DIMTOFL
 70
     0
  9
$DIMTVP
 40
0.0
  9
$DIMTIX
 70
     0
  9
$DIMSOXD
 70
     0
  9
$DIMSAH
 70
     0
  9
$DIMBLK1
  1

  9
$DIMBLK2
  1

  9
$DIMSTYLE
  2
Standard
  9
$DIMCLRD
 70
     0
  9
$DIMCLRE
 70
     0
  9
$DIMCLRT
 70
     0
  9
$DIMTFAC
 40
1.0
  9
$DIMGAP
 40
0.09
  9
$DIMJUST
 70
     0
  9
$DIMSD1
 70
     0
  9
$DIMSD2
 70
     0
  9
$DIMTOLJ
 70
     1
  9
$DIMTZIN
 70
     0
  9
$DIMALTZ
 70
     0
  9
$DIMALTTZ
 70
     0
  9
$DIMUPT
 70
     0
  9
$DIMDEC
 70
     0
  9
$DIMTDEC
 70
     0
  9
$DIMALTU
 70
     2
  9
$DIMALTTD
 70
     1
  9
$DIMTXSTY
  7
Standard
  9
$DIMAUNIT
 70
     0
  9
$DIMADEC
 70
     0
  9
$DIMALTRND
 40
1.0
  9
$DIMAZIN
 70
     0
  9
$DIMDSEP
 70
    46
  9
$DIMATFIT
 70
     3
  9
$DIMFRAC
 70
     0
  9
$DIMLDRBLK
  1

  9
$DIMLUNIT
 70
     2
  9
$DIMLWD
 70
    -2
  9
$DIMLWE
 70
    -2
  9
$DIMTMOVE
 70
     0
  9
$DIMFXL
 40
1.0
  9
$DIMFXLON
 70
     0
  9
$DIMJOGANG
 40
0.7853981633974483
  9
$DIMTFILL
 70
     0
  9
$DIMTFILLCLR
 70
     0
  9
$DIMARCSYM
 70
     0
  9
$DIMLTYPE
  6

  9
$DIMLTEX1
  6

  9
$DIMLTEX2
  6

  9
$DIMTXTDIRECTION
 70
     0
  9
$LUNITS
 70
     2
  9
$LUPREC
 70
     2
  9
$SKETCHINC
 40
0.1
  9
$FILLETRAD
 40
0.0
  9
$AUNITS
 70
     0
  9
$AUPREC
 70
     0
  9
$MENU
  1
.
  9
$ELEVATION
 40
0.0
  9
$PELEVATION
 40
0.0
  9
$THICKNESS
 40
0.0
  9
$LIMCHECK
 70
     0
  9
$CHAMFERA
 40
0.0
  9
$CHAMFERB
 40
0.0
  9
$CHAMFERC
 40
0.0
  9
$CHAMFERD
 40
0.0
  9
$SKPOLY
 70
     0
  9
$TDCREATE
 40
2454179.421566760
  9
$TDUCREATE
 40
2454179.713233426
  9
$TDUPDATE
 40
2457206.372738530
  9
$TDUUPDATE
 40
2457206.664405197
  9
$TDINDWG
 40
0.7292755556
  9
$TDUSRTIMER
 40
0.7292755556
  9
$USRTIMER
 70
     1
  9
$ANGBASE
 50
0.0
  9
$ANGDIR
 70
     0
  9
$PDMODE
 70
     0
  9
$PDSIZE
 40
0.0
  9
$PLINEWID
 40
0.0
  9
$SPLFRAME
 70
     0
  9
$SPLINETYPE
 70
     6
  9
$SPLINESEGS
 70
     8
  9
$HANDSEED
  5
D1F
  9
$SURFTAB1
 70
     6
  9
$SURFTAB2
 70
     6
  9
$SURFTYPE
 70
     6
  9
$SURFU
 70
     6
  9
$SURFV
 70
     6
  9
$UCSBASE
  2

  9
$UCSNAME
  2

  9
$UCSORG
 10
0.0
 20
0.0
 30
0.0
  9
$UCSXDIR
 10
1.0
 20
0.0
 30
0.0
  9
$UCSYDIR
 10
0.0
 20
1.0
 30
0.0
  9
$UCSORTHOREF
  2

  9
$UCSORTHOVIEW
 70
     0
  9
$UCSORGTOP
 10
0.0
 20
0.0
 30
0.0
  9
$UCSORGBOTTOM
 10
0.0
 20
0.0
 30
0.0
  9
$UCSORGLEFT
 10
0.0
 20
0.0
 30
0.0
  9
$UCSORGRIGHT
 10
0.0
 20
0.0
 30
0.0
  9
$UCSORGFRONT
 10
0.0
 20
0.0
 30
0.0
  9
$UCSORGBACK
 10
0.0
 20
0.0
 30
0.0
  9
$PUCSBASE
  2

  9
$PUCSNAME
  2

  9
$PUCSORG
 10
0.0
 20
0.0
 30
0.0
  9
$PUCSXDIR
 10
1.0
 20
0.0
 30
0.0
  9
$PUCSYDIR
 10
0.0
 20
1.0
 30
0.0
  9
$PUCSORTHOREF
  2

  9
$PUCSORTHOVIEW
 70
     0
  9
$PUCSORGTOP
 10
0.0
 20
0.0
 30
0.0
  9
$PUCSORGBOTTOM
 10
0.0
 20
0.0
 30
0.0
  9
$PUCSORGLEFT
 10
0.0
 20
0.0
 30
0.0
  9
$PUCSORGRIGHT
 10
0.0
 20
0.0
 30
0.0
  9
$PUCSORGFRONT
 10
0.0
 20
0.0
 30
0.0
  9
$PUCSORGBACK
 10
0.0
 20
0.0
 30
0.0
  9
$USERI1
 70
     0
  9
$USERI2
 70
     0
  9
$USERI3
 70
     0
  9
$USERI4
 70
     0
  9
$USERI5
 70
     0
  9
$USERR1
 40
0.0
  9
$USERR2
 40
0.0
  9
$USERR3
 40
0.0
  9
$USERR4
 40
0.0
  9
$USERR5
 40
0.0
  9
$WORLDVIEW
 70
     1
  9
$SHADEDGE
 70
     3
  9
$SHADEDIF
 70
    70
  9
$TILEMODE
 70
     1
  9
$MAXACTVP
 70
    64
  9
$PINSBASE
 10
0.0
 20
0.0
 30
0.0
  9
$PLIMCHECK
 70
     0
  9
$PEXTMIN
 10
-0.3364761813161792
 20
-0.3116110158726855
 30
0.0
  9
$PEXTMAX
 10
10.86607271795274
 20
8.326401927579581
 30
0.0
  9
$PLIMMIN
 10
-0.2500002402958907
 20
-0.2499999962453767
  9
$PLIMMAX
 10
10.74999951940822
 20
8.249999763458733
  9
$UNITMODE
 70
     0
  9
$VISRETAIN
 70
     1
  9
$PLINEGEN
 70
     0
  9
$PSLTSCALE
 70
     1
  9
$TREEDEPTH
 70
  3020
  9
$CMLSTYLE
  2
Standard
  9
$CMLJUST
 70
     0
  9
$CMLSCALE
 40
1.0
  9
$PROXYGRAPHICS
 70
     1
  9
$MEASUREMENT
 70
     0
  9
$CELWEIGHT
370
    -1
  9
$ENDCAPS
280
     0
  9
$JOINSTYLE
280
     0
  9
$LWDISPLAY
290
     0
  9
$INSUNITS
 70
     4
  9
$HYPERLINKBASE
  1

  9
$STYLESHEET
  1

  9
$XEDIT
290
     1
  9
$CEPSNTYPE
380
     0
  9
$PSTYLEMODE
290
     1
  9
$FINGERPRINTGUID
  2
{FDEAD576-A652-11D2-9A35-0060089B3A3F}
  9
$VERSIONGUID
  2
{029F98A3-D1E1-4373-B6FC-063F4603DB48}
  9
$EXTNAMES
290
     1
  9
$PSVPSCALE
 40
0.0
  9
$OLESTARTUP
290
     0
  9
$SORTENTS
280
   127
  9
$INDEXCTL
280
     0
  9
$HIDETEXT
280
     1
  9
$XCLIPFRAME
280
     0
  9
$HALOGAP
280
     0
  9
$OBSCOLOR
 70
   257
  9
$OBSLTYPE
280
     0
  9
$INTERSECTIONDISPLAY
280
     0
  9
$INTERSECTIONCOLOR
 70
   257
  9
$DIMASSOC
280
     2
  9
$PROJECTNAME
  1

  9
$CAMERADISPLAY
290
     0
  9
$LENSLENGTH
 40
50.0
  9
$CAMERAHEIGHT
 40
0.0
  9
$STEPSPERSEC
 40
2.0
  9
$STEPSIZE
 40
6.0
  9
$3DDWFPREC
 40
2.0
  9
$PSOLWIDTH
 40
0.25
  9
$PSOLHEIGHT
 40
4.0
  9
$LOFTANG1
 40
1.570796326794896
  9
$LOFTANG2
 40
1.570796326794896
  9
$LOFTMAG1
 40
0.0
  9
$LOFTMAG2
 40
0.0
  9
$LOFTPARAM
 70
     7
  9
$LOFTNORMALS
280
     1
  9
$LATITUDE
 40
37.795
  9
$LONGITUDE
 40
-122.394
  9
$NORTHDIRECTION
 40
0.0
  9
$TIMEZONE
 70
 -8000
  9
$LIGHTGLYPHDISPLAY
280
     1
  9
$TILEMODELIGHTSYNCH
280
     1
  9
$CMATERIAL
347
765
  9
$SOLIDHIST
280
     1
  9
$SHOWHIST
280
     1
  9
$DWFFRAME
280
     2
  9
$DGNFRAME
280
     0
  9
$REALWORLDSCALE
290
     1
  9
$INTERFERECOLOR
 62
     1
  9
$INTERFEREOBJVS
345
787
  9
$INTERFEREVPVS
346
784
  9
$CSHADOW
280
     0
  9
$SHADOWPLANELOCATION
 40
0.0
  0
ENDSEC
  0
SECTION
  2
CLASSES
  0
CLASS
  1
ACDBDICTIONARYWDFLT
  2
AcDbDictionaryWithDefault
  3
ObjectDBX Classes
 90
        0
 91
        1
280
     0
281
     0
  0
CLASS
  1
DICTIONARYVAR
  2
AcDbDictionaryVar
  3
ObjectDBX Classes
 90
        0
 91
       11
280
     0
281
     0
  0
CLASS
  1
DIMASSOC
  2
AcDbDimAssoc
  3
"AcDbDimAssoc|Product Desc:     AcDim ARX App For Dimension|Company:          Autodesk, Inc.|WEB Address:      www.autodesk.com"
 90
        0
 91
        2
280
     0
281
     0
  0
CLASS
  1
MATERIAL
  2
AcDbMaterial
  3
ObjectDBX Classes
 90
     1153
 91
        3
280
     0
281
     0
  0
CLASS
  1
VISUALSTYLE
  2
AcDbVisualStyle
  3
ObjectDBX Classes
 90
     4095
 91
       26
280
     0
281
     0
  0
CLASS
  1
TABLESTYLE
  2
AcDbTableStyle
  3
ObjectDBX Classes
 90
     4095
 91
        1
280
     0
281
     0
  0
CLASS
  1
SCALE
  2
AcDbScale
  3
ObjectDBX Classes
 90
     1153
 91
       33
280
     0
281
     0
  0
CLASS
  1
MLEADERSTYLE
  2
AcDbMLeaderStyle
  3
ACDB_MLEADERSTYLE_CLASS
 90
     4095
 91
        1
280
     0
281
     0
  0
CLASS
  1
CELLSTYLEMAP
  2
AcDbCellStyleMap
  3
ObjectDBX Classes
 90
     1152
 91
        1
280
     0
281
     0
  0
CLASS
  1
SORTENTSTABLE
  2
AcDbSortentsTable
  3
ObjectDBX Classes
 90
        0
 91
        1
280
     0
281
     0
  0
CLASS
  1
ACDBSECTIONVIEWSTYLE
  2
AcDbSectionViewStyle
  3
ObjectDBX Classes
 90
     1025
 91
        1
280
     0
281
     0
  0
CLASS
  1
ACDBDETAILVIEWSTYLE
  2
AcDbDetailViewStyle
  3
ObjectDBX Classes
 90
     1025
 91
        1
280
     0
281
     0
  0
ENDSEC
  0
SECTION
  2
TABLES
  0
TABLE
  2
VPORT
  5
8
330
0
100
AcDbSymbolTable
 70
     1
  0
VPORT
  5
763
330
8
100
AcDbSymbolTableRecord
100
AcDbViewportTableRecord
  2
*Active
 70
     0
 10
0.0
 20
0.0
 11
1.0
 21
1.0
 12
490.3575658342584
 22
396.5881732424418
 13
0.0
 23
0.0
 14
0.5
 24
0.5
 15
6.0
 25
6.0
 16
0.0
 26
0.0
 36
1.0
 17
0.0
 27
0.0
 37
0.0
 40
337.6423365385199
 41
1.777618364418938
 42
50.0
 43
0.0
 44
0.0
 50
0.0
 51
0.0
 71
     0
 72
  1000
 73
     1
 74
     3
 75
     0
 76
     0
 77
     0
 78
     0
281
     0
 65
     1
110
0.0
120
0.0
130
0.0
111
1.0
121
0.0
131
0.0
112
0.0
122
1.0
132
0.0
 79
     0
146
0.0
348
783
 60
     3
 61
     5
292
     1
282
     1
141
0.0
142
0.0
 63
   250
421
  3355443
1001
ACAD_NAV_VCDISPLAY
1070
     3
  0
ENDTAB
  0
TABLE
  2
LTYPE
  5
5
330
0
100
AcDbSymbolTable
 70
     2
  0
LTYPE
  5
14
330
5
100
AcDbSymbolTableRecord
100
AcDbLinetypeTableRecord
  2
ByBlock
 70
     0
  3

 72
    65
 73
     0
 40
0.0
  0
LTYPE
  5
15
330
5
100
AcDbSymbolTableRecord
100
AcDbLinetypeTableRecord
  2
ByLayer
 70
     0
  3

 72
    65
 73
     0
 40
0.0
  0
LTYPE
  5
16
330
5
100
AcDbSymbolTableRecord
100
AcDbLinetypeTableRecord
  2
Continuous
 70
     0
  3
Solid line
 72
    65
 73
     0
 40
0.0
  0
ENDTAB
  0
TABLE
  2
LAYER
  5
2
102
{ACAD_XDICTIONARY
360
82B
102
}
330
0
100
AcDbSymbolTable
 70
     2
  0
LAYER
  5
10
102
{ACAD_XDICTIONARY
360
815
102
}
330
2
100
AcDbSymbolTableRecord
100
AcDbLayerTableRecord
  2
0
 70
     0
 62
     7
  6
Continuous
370
    -3
390
F
347
775
348
0
  0
LAYER
  5
107
330
2
100
AcDbSymbolTableRecord
100
AcDbLayerTableRecord
  2
Defpoints
 70
     0
 62
     7
  6
Continuous
290
     0
370
    -3
390
F
347
775
348
0
  0
ENDTAB
  0
TABLE
  2
STYLE
  5
3
330
0
100
AcDbSymbolTable
 70
     1
  0
STYLE
  5
11
330
3
100
AcDbSymbolTableRecord
100
AcDbTextStyleTableRecord
  2
Standard
 70
     0
 40
0.0
 41
1.0
 50
0.0
 71
     0
 42
0.2
  3
ARIAL.TTF
  4

1001
ACAD
1000
Arial
1071
       34
  0
ENDTAB
  0
TABLE
  2
VIEW
  5
6
330
0
100
AcDbSymbolTable
 70
     2
  0
ENDTAB
  0
TABLE
  2
UCS
  5
7
330
0
100
AcDbSymbolTable
 70
     0
  0
ENDTAB
  0
TABLE
  2
APPID
  5
9
330
0
100
AcDbSymbolTable
 70
     9
  0
APPID
  5
12
330
9
100
AcDbSymbolTableRecord
100
AcDbRegAppTableRecord
  2
ACAD
 70
     0
  0
APPID
  5
7B4
330
9
100
AcDbSymbolTableRecord
100
AcDbRegAppTableRecord
  2
ACAD_MLEADERVER
 70
     0
  0
APPID
  5
7BF
330
9
100
AcDbSymbolTableRecord
100
AcDbRegAppTableRecord
  2
AcadAnnoPO
 70
     0
  0
APPID
  5
7C0
330
9
100
AcDbSymbolTableRecord
100
AcDbRegAppTableRecord
  2
ACAD_DSTYLE_DIMJAG
 70
     0
  0
APPID
  5
7C1
330
9
100
AcDbSymbolTableRecord
100
AcDbRegAppTableRecord
  2
ACAD_DSTYLE_DIMBREAK
 70
     0
  0
APPID
  5
7C2
330
9
100
AcDbSymbolTableRecord
100
AcDbRegAppTableRecord
  2
ACAD_DSTYLE_DIMTALN
 70
     0
  0
APPID
  5
810
330
9
100
AcDbSymbolTableRecord
100
AcDbRegAppTableRecord
  2
ACAD_PSEXT
 70
     0
  0
APPID
  5
CC9
330
9
100
AcDbSymbolTableRecord
100
AcDbRegAppTableRecord
  2
ACAD_EXEMPT_FROM_CAD_STANDARDS
 70
     0
  0
APPID
  5
CD2
330
9
100
AcDbSymbolTableRecord
100
AcDbRegAppTableRecord
  2
ACAD_NAV_VCDISPLAY
 70
     0
  0
ENDTAB
  0
TABLE
  2
DIMSTYLE
  5
A
330
0
100
AcDbSymbolTable
 70
     3
100
AcDbDimStyleTable
 71
     2
340
27
340
7C3
  0
DIMSTYLE
105
27
102
{ACAD_REACTORS
330
A2D
330
C50
102
}
330
A
100
AcDbSymbolTableRecord
100
AcDbDimStyleTableRecord
  2
Standard
 70
     0
340
11
  0
DIMSTYLE
105
134
330
A
100
AcDbSymbolTableRecord
100
AcDbDimStyleTableRecord
  2
KRYTON
 70
     0
  3
MM\X
  4
IN.
 41
2.0
140
3.0
143
0.0393700787401575
147
0.54
170
     1
171
     1
271
     1
272
     1
274
     1
340
11
  0
DIMSTYLE
105
7C3
102
{ACAD_REACTORS
330
70A
330
72F
102
}
330
A
100
AcDbSymbolTableRecord
100
AcDbDimStyleTableRecord
  2
default
 70
     0
  3
 MM\X
  4
 IN.
 40
60.0
143
0.0393700787401575
148
1.0
170
     1
171
     1
271
     0
272
     0
274
     1
340
11
1001
ACAD_DSTYLE_DIMBREAK
1070
   391
1040
0.125
1001
ACAD_DSTYLE_DIMJAG
1070
   388
1040
1.5
1001
ACAD_DSTYLE_DIMTALN
1070
   392
1070
     0
  0
ENDTAB
  0
TABLE
  2
BLOCK_RECORD
  5
1
330
0
100
AcDbSymbolTable
 70
     7
  0
BLOCK_RECORD
  5
1F
102
{ACAD_XDICTIONARY
360
A12
102
}
330
1
100
AcDbSymbolTableRecord
100
AcDbBlockTableRecord
  2
*Model_Space
340
22
 70
     0
280
     1
281
     0
  0
BLOCK_RECORD
  5
5D
330
1
100
AcDbSymbolTableRecord
100
AcDbBlockTableRecord
  2
*Paper_Space
340
5E
 70
     0
280
     1
281
     0
  0
BLOCK_RECORD
  5
58
330
1
100
AcDbSymbolTableRecord
100
AcDbBlockTableRecord
  2
*Paper_Space0
340
59
 70
     0
280
     1
281
     0
  0
BLOCK_RECORD
  5
135
102
{ACAD_XDICTIONARY
360
137
102
}
330
1
100
AcDbSymbolTableRecord
100
AcDbBlockTableRecord
  2
joint line
340
0
102
{BLKREFS
331
2C3
331
AEE
331
AEF
102
}
 70
     4
280
     1
281
     0
  0
BLOCK_RECORD
  5
70B
330
1
100
AcDbSymbolTableRecord
100
AcDbBlockTableRecord
  2
*D2
340
0
 70
     0
280
     1
281
     0
  0
BLOCK_RECORD
  5
730
330
1
100
AcDbSymbolTableRecord
100
AcDbBlockTableRecord
  2
*D3
340
0
 70
     0
280
     1
281
     0
  0
BLOCK_RECORD
  5
9DC
330
1
100
AcDbSymbolTableRecord
100
AcDbBlockTableRecord
  2
$AUDIT_BAD_BLOCK_RECORD1
340
0
 70
     0
280
     1
281
     0
  0
BLOCK_RECORD
  5
A2E
330
1
100
AcDbSymbolTableRecord
100
AcDbBlockTableRecord
  2
*D5
340
0
 70
     0
280
     1
281
     0
  0
BLOCK_RECORD
  5
C51
330
1
100
AcDbSymbolTableRecord
100
AcDbBlockTableRecord
  2
*D6
340
0
 70
     0
280
     1
281
     0
  0
ENDTAB
  0
ENDSEC
  0
SECTION
  2
BLOCKS
  0
BLOCK
  5
20
330
1F
100
AcDbEntity
  8
0
100
AcDbBlockBegin
  2
*Model_Space
 70
     0
 10
0.0
 20
0.0
 30
0.0
  3
*Model_Space
  1

  0
ENDBLK
  5
21
330
1F
100
AcDbEntity
  8
0
100
AcDbBlockEnd
  0
BLOCK
  5
5F
330
5D
100
AcDbEntity
 67
     1
  8
0
100
AcDbBlockBegin
  2
*Paper_Space
 70
     0
 10
0.0
 20
0.0
 30
0.0
  3
*Paper_Space
  1

  0
ENDBLK
  5
60
330
5D
100
AcDbEntity
 67
     1
  8
0
100
AcDbBlockEnd
  0
BLOCK
  5
5A
330
58
100
AcDbEntity
 67
     1
  8
0
100
AcDbBlockBegin
  2
*Paper_Space0
 70
     0
 10
0.0
 20
0.0
 30
0.0
  3
*Paper_Space0
  1

  0
VIEWPORT
  5
E5
330
58
100
AcDbEntity
 67
     1
  8
0
100
AcDbViewport
 10
7.026676524828074
 20
4.711697252950093
 30
0.0
 40
21.95464872994007
 41
11.63754836446702
 68
     0
 69
     0
 12
7.026676524828074
 22
4.711697252950093
 13
0.0
 23
0.0
 14
0.5
 24
0.5
 15
0.5
 25
0.5
 16
0.0
 26
0.0
 36
1.0
 17
0.0
 27
0.0
 37
0.0
 42
50.0
 43
0.0
 44
0.0
 45
11.63754836446702
 50
0.0
 51
0.0
 72
  1000
 90
    32800
  1

281
     0
 71
     1
 74
     0
110
0.0
120
0.0
130
0.0
111
1.0
121
0.0
131
0.0
112
0.0
122
1.0
132
0.0
 79
     0
146
0.0
170
     0
 61
     5
348
783
292
     1
282
     1
141
0.0
142
0.0
 63
   250
421
  3355443
  0
VIEWPORT
  5
E7
330
58
100
AcDbEntity
 67
     1
  8
0
100
AcDbViewport
 10
5.24999976158142
 20
3.99999976158142
 30
0.0
 40
8.399999618530271
 41
6.399999618530272
 68
     0
 69
     0
 12
99.99843372624377
 22
35.45694335855412
 13
0.0
 23
0.0
 14
0.5
 24
0.5
 15
0.5
 25
0.5
 16
0.0
 26
0.0
 36
1.0
 17
0.0
 27
0.0
 37
0.0
 42
50.0
 43
0.0
 44
0.0
 45
123.4430894872608
 50
0.0
 51
0.0
 72
  1000
 90
    32864
  1

281
     0
 71
     1
 74
     0
110
0.0
120
0.0
130
0.0
111
1.0
121
0.0
131
0.0
112
0.0
122
1.0
132
0.0
 79
     0
146
0.0
170
     0
 61
     5
348
783
292
     1
282
     1
141
0.0
142
0.0
 63
   250
421
  3355443
  0
ENDBLK
  5
5B
330
58
100
AcDbEntity
 67
     1
  8
0
100
AcDbBlockEnd
  0
BLOCK
  5
138
330
135
100
AcDbEntity
  8
0
100
AcDbBlockBegin
  2
joint line
 70
     0
 10
0.0
 20
0.0
 30
0.0
  3
joint line
  1

  0
LWPOLYLINE
  5
136
330
135
100
AcDbEntity
  8
0
100
AcDbPolyline
 90
        7
 70
     0
 43
0.0
 10
40.06469683741646
 20
0.0
 10
14.66469683741647
 20
0.0
 10
0.0
 20
25.40000000000001
 10
0.0
 20
0.0
 10
0.0
 20
-25.40000000000001
 10
-14.66469683741645
 20
0.0
 10
-40.06469683741646
 20
0.0
  0
ENDBLK
  5
139
330
135
100
AcDbEntity
  8
0
100
AcDbBlockEnd
  0
BLOCK
  5
717
330
70B
100
AcDbEntity
  8
0
100
AcDbBlockBegin
  2
*D2
 70
     1
 10
0.0
 20
0.0
 30
0.0
  3
*D2
  1

  0
LINE
  5
B27
330
70B
100
AcDbEntity
  8
0
 62
     0
440
 16777216
370
    -2
100
AcDbLine
 10
342.217289807958
 20
480.7977760118833
 30
0.0
 11
342.217289807958
 21
551.4886218973863
 31
0.0
  0
LINE
  5
B28
330
70B
100
AcDbEntity
  8
0
 62
     0
440
 16777216
370
    -2
100
AcDbLine
 10
494.5239497912151
 20
480.7194544382602
 30
0.0
 11
494.5239497912151
 21
551.4886218973863
 31
0.0
  0
LINE
  5
B29
330
70B
100
AcDbEntity
  8
0
 62
     0
440
 16777216
370
    -2
100
AcDbLine
 10
353.017289807958
 20
540.6886218973864
 30
0.0
 11
397.1684369892182
 21
540.6886218973864
 31
0.0
  0
LINE
  5
B2A
330
70B
100
AcDbEntity
  8
0
 62
     0
440
 16777216
370
    -2
100
AcDbLine
 10
483.7239497912151
 20
540.6886218973864
 30
0.0
 11
439.5728026099549
 21
540.6886218973864
 31
0.0
  0
SOLID
  5
B2B
330
70B
100
AcDbEntity
  8
0
 62
     0
440
 16777216
100
AcDbTrace
 10
353.017289807958
 20
542.4886218973863
 30
0.0
 11
353.017289807958
 21
538.8886218973864
 31
0.0
 12
342.217289807958
 22
540.6886218973864
 32
0.0
 13
342.217289807958
 23
540.6886218973864
 33
0.0
  0
SOLID
  5
B2C
330
70B
100
AcDbEntity
  8
0
 62
     0
440
 16777216
100
AcDbTrace
 10
483.7239497912151
 20
542.4886218973863
 30
0.0
 11
483.7239497912151
 21
538.8886218973864
 31
0.0
 12
494.5239497912151
 22
540.6886218973864
 32
0.0
 13
494.5239497912151
 23
540.6886218973864
 33
0.0
  0
MTEXT
  5
B2D
330
70B
100
AcDbEntity
  8
0
 62
     0
440
 16777216
100
AcDbMText
 10
418.3706197995865
 20
549.4584036163494
 30
0.0
 40
6.599999999999999
 41
0.0
 46
0.0
 71
     5
 72
     1
  1
\A1;152 MM
 73
     1
 44
1.0
  0
MTEXT
  5
B2E
330
70B
100
AcDbEntity
  8
0
 62
     0
440
 16777216
100
AcDbMText
 10
418.3706197995865
 20
531.0589493189417
 30
0.0
 40
6.599999999999999
 41
0.0
 46
0.0
 71
     5
 72
     1
  1
\A1;[6.0 IN.]
 73
     1
 44
1.0
  0
POINT
  5
B2F
330
70B
100
AcDbEntity
  8
Defpoints
 62
     0
440
 16777216
100
AcDbPoint
 10
342.217289807958
 20
477.0477760118834
 30
0.0
  0
POINT
  5
B30
330
70B
100
AcDbEntity
  8
Defpoints
 62
     0
440
 16777216
100
AcDbPoint
 10
494.5239497912151
 20
476.9694544382602
 30
0.0
  0
POINT
  5
B31
330
70B
100
AcDbEntity
  8
Defpoints
 62
     0
440
 16777216
100
AcDbPoint
 10
494.5239497912151
 20
540.6886218973864
 30
0.0
  0
ENDBLK
  5
718
330
70B
100
AcDbEntity
  8
0
100
AcDbBlockEnd
  0
BLOCK
  5
73D
330
730
100
AcDbEntity
  8
0
100
AcDbBlockBegin
  2
*D3
 70
     1
 10
0.0
 20
0.0
 30
0.0
  3
*D3
  1

  0
LINE
  5
B13
330
730
100
AcDbEntity
  8
0
 62
     0
440
 16777216
370
    -2
100
AcDbLine
 10
478.125
 20
476.96945443826
 30
0.0
 11
407.1159176297447
 21
476.96945443826
 31
0.0
  0
LINE
  5
B14
330
730
100
AcDbEntity
  8
0
 62
     0
440
 16777216
370
    -2
100
AcDbLine
 10
478.7040070059656
 20
437.3347716372127
 30
0.0
 11
407.1159176297447
 21
437.3347716372127
 31
0.0
  0
LINE
  5
B15
330
730
100
AcDbEntity
  8
0
 62
     0
440
 16777216
370
    -2
100
AcDbLine
 10
417.9159176297447
 20
487.7694544382601
 30
0.0
 11
417.9159176297447
 21
498.56945443826
 31
0.0
  0
LINE
  5
B16
330
730
100
AcDbEntity
  8
0
 62
     0
440
 16777216
370
    -2
100
AcDbLine
 10
417.9159176297447
 20
426.5347716372127
 30
0.0
 11
417.9159176297447
 21
415.7347716372127
 31
0.0
  0
SOLID
  5
B17
330
730
100
AcDbEntity
  8
0
 62
     0
440
 16777216
100
AcDbTrace
 10
416.1159176297447
 20
487.7694544382601
 30
0.0
 11
419.7159176297447
 21
487.7694544382601
 31
0.0
 12
417.9159176297447
 22
476.96945443826
 32
0.0
 13
417.9159176297447
 23
476.96945443826
 33
0.0
  0
SOLID
  5
B18
330
730
100
AcDbEntity
  8
0
 62
     0
440
 16777216
100
AcDbTrace
 10
416.1159176297447
 20
426.5347716372127
 30
0.0
 11
419.7159176297447
 21
426.5347716372127
 31
0.0
 12
417.9159176297447
 22
437.3347716372127
 32
0.0
 13
417.9159176297447
 23
437.3347716372127
 33
0.0
  0
MTEXT
  5
B19
330
730
100
AcDbEntity
  8
0
 62
     0
440
 16777216
100
AcDbMText
 10
417.9159176297446
 20
460.7030761480016
 30
0.0
 40
6.599999999999999
 41
0.0
 46
0.0
 71
     5
 72
     1
  1
\A1;40 MM\P [1.5 IN.]
 73
     1
 44
1.0
  0
POINT
  5
B1A
330
730
100
AcDbEntity
  8
Defpoints
 62
     0
440
 16777216
100
AcDbPoint
 10
481.875
 20
476.96945443826
 30
0.0
  0
POINT
  5
B1B
330
730
100
AcDbEntity
  8
Defpoints
 62
     0
440
 16777216
100
AcDbPoint
 10
482.4540070059656
 20
437.3347716372127
 30
0.0
  0
POINT
  5
B1C
330
730
100
AcDbEntity
  8
Defpoints
 62
     0
440
 16777216
100
AcDbPoint
 10
417.9159176297447
 20
437.3347716372127
 30
0.0
  0
ENDBLK
  5
73E
330
730
100
AcDbEntity
  8
0
100
AcDbBlockEnd
  0
BLOCK
  5
9DD
330
9DC
100
AcDbEntity
  8
0
100
AcDbBlockBegin
  2
$AUDIT_BAD_BLOCK_RECORD1
 70
     0
 10
0.0
 20
0.0
 30
0.0
  3
$AUDIT_BAD_BLOCK_RECORD1
  1

  0
LWPOLYLINE
  5
8DF
330
9DC
100
AcDbEntity
  8
0
  6
ByBlock
 62
     0
100
AcDbPolyline
 90
        2
 70
     1
 43
0.5
 10
-0.0625
 20
0.0
 42
1.0
 10
0.0625
 20
0.0
 42
1.0
  0
ENDBLK
  5
9DE
330
9DC
100
AcDbEntity
  8
0
100
AcDbBlockEnd
  0
BLOCK
  5
A2F
330
A2E
100
AcDbEntity
  8
0
100
AcDbBlockBegin
  2
*D5
 70
     1
 10
0.0
 20
0.0
 30
0.0
  3
*D5
  1

  0
LINE
  5
B1D
330
A2E
100
AcDbEntity
  8
0
 62
     0
440
 16777216
370
    -2
100
AcDbLine
 10
478.0739497912152
 20
451.5694544382601
 30
0.0
 11
446.8661021516876
 21
451.5694544382601
 31
0.0
  0
LINE
  5
B1E
330
A2E
100
AcDbEntity
  8
0
 62
     0
440
 16777216
370
    -2
100
AcDbLine
 10
478.0739497912152
 20
476.96945443826
 30
0.0
 11
446.8661021516876
 21
476.96945443826
 31
0.0
  0
LINE
  5
B1F
330
A2E
100
AcDbEntity
  8
0
 62
     0
440
 16777216
370
    -2
100
AcDbLine
 10
457.6661021516875
 20
440.7694544382601
 30
0.0
 11
457.6661021516875
 21
429.9694544382601
 31
0.0
  0
LINE
  5
B20
330
A2E
100
AcDbEntity
  8
0
 62
     0
440
 16777216
370
    -2
100
AcDbLine
 10
457.6661021516875
 20
487.76945443826
 30
0.0
 11
457.6661021516875
 21
498.56945443826
 31
0.0
  0
SOLID
  5
B21
330
A2E
100
AcDbEntity
  8
0
 62
     0
440
 16777216
100
AcDbTrace
 10
455.8661021516876
 20
440.7694544382601
 30
0.0
 11
459.4661021516876
 21
440.7694544382601
 31
0.0
 12
457.6661021516875
 22
451.5694544382601
 32
0.0
 13
457.6661021516875
 23
451.5694544382601
 33
0.0
  0
SOLID
  5
B22
330
A2E
100
AcDbEntity
  8
0
 62
     0
440
 16777216
100
AcDbTrace
 10
455.8661021516876
 20
487.76945443826
 30
0.0
 11
459.4661021516876
 21
487.76945443826
 31
0.0
 12
457.6661021516875
 22
476.96945443826
 32
0.0
 13
457.6661021516875
 23
476.96945443826
 33
0.0
  0
MTEXT
  5
B23
330
A2E
100
AcDbEntity
  8
0
 62
     0
440
 16777216
100
AcDbMText
 10
457.6661021516875
 20
464.2694544382601
 30
0.0
 40
6.599999999999999
 41
0.0
 46
0.0
 71
     5
 72
     1
  1
\A1;25 MM\P [1.0 IN.]
 73
     1
 44
1.0
  0
POINT
  5
B24
330
A2E
100
AcDbEntity
  8
Defpoints
 62
     0
440
 16777216
100
AcDbPoint
 10
481.8239497912152
 20
451.5694544382601
 30
0.0
  0
POINT
  5
B25
330
A2E
100
AcDbEntity
  8
Defpoints
 62
     0
440
 16777216
100
AcDbPoint
 10
481.8239497912152
 20
476.96945443826
 30
0.0
  0
POINT
  5
B26
330
A2E
100
AcDbEntity
  8
Defpoints
 62
     0
440
 16777216
100
AcDbPoint
 10
457.6661021516875
 20
476.96945443826
 30
0.0
  0
ENDBLK
  5
A30
330
A2E
100
AcDbEntity
  8
0
100
AcDbBlockEnd
  0
BLOCK
  5
C52
330
C51
100
AcDbEntity
  8
0
100
AcDbBlockBegin
  2
*D6
 70
     1
 10
0.0
 20
0.0
 30
0.0
  3
*D6
  1

  0
LINE
  5
C7F
330
C51
100
AcDbEntity
  8
0
 62
     0
440
 16777216
370
    -2
100
AcDbLine
 10
481.8239497912152
 20
433.5847716372127
 30
0.0
 11
481.8239497912152
 21
413.5732600686309
 31
0.0
  0
LINE
  5
C80
330
C51
100
AcDbEntity
  8
0
 62
     0
440
 16777216
370
    -2
100
AcDbLine
 10
507.2239497912153
 20
433.5847716372127
 30
0.0
 11
507.2239497912153
 21
413.5732600686309
 31
0.0
  0
LINE
  5
C81
330
C51
100
AcDbEntity
  8
0
 62
     0
440
 16777216
370
    -2
100
AcDbLine
 10
471.0239497912152
 20
424.373260068631
 30
0.0
 11
460.2239497912152
 21
424.373260068631
 31
0.0
  0
LINE
  5
C82
330
C51
100
AcDbEntity
  8
0
 62
     0
440
 16777216
370
    -2
100
AcDbLine
 10
518.0239497912152
 20
424.373260068631
 30
0.0
 11
528.8239497912152
 21
424.373260068631
 31
0.0
  0
SOLID
  5
C83
330
C51
100
AcDbEntity
  8
0
 62
     0
440
 16777216
100
AcDbTrace
 10
471.0239497912152
 20
426.1732600686309
 30
0.0
 11
471.0239497912152
 21
422.573260068631
 31
0.0
 12
481.8239497912152
 22
424.373260068631
 32
0.0
 13
481.8239497912152
 23
424.373260068631
 33
0.0
  0
SOLID
  5
C84
330
C51
100
AcDbEntity
  8
0
 62
     0
440
 16777216
100
AcDbTrace
 10
518.0239497912152
 20
426.1732600686309
 30
0.0
 11
518.0239497912152
 21
422.573260068631
 31
0.0
 12
507.2239497912153
 22
424.373260068631
 32
0.0
 13
507.2239497912153
 23
424.373260068631
 33
0.0
  0
MTEXT
  5
C85
330
C51
100
AcDbEntity
  8
0
 62
     0
440
 16777216
100
AcDbMText
 10
551.3474832154989
 20
424.373260068631
 30
0.0
 40
6.599999999999999
 41
0.0
 46
0.0
 71
     5
 72
     1
  1
\A1;25 MM\P [1.0 IN.]
 73
     1
 44
1.0
  0
POINT
  5
C86
330
C51
100
AcDbEntity
  8
Defpoints
 62
     0
440
 16777216
100
AcDbPoint
 10
481.8239497912152
 20
437.3347716372127
 30
0.0
  0
POINT
  5
C87
330
C51
100
AcDbEntity
  8
Defpoints
 62
     0
440
 16777216
100
AcDbPoint
 10
507.2239497912153
 20
437.3347716372127
 30
0.0
  0
POINT
  5
C88
330
C51
100
AcDbEntity
  8
Defpoints
 62
     0
440
 16777216
100
AcDbPoint
 10
507.2239497912153
 20
424.373260068631
 30
0.0
  0
ENDBLK
  5
C53
330
C51
100
AcDbEntity
  8
0
100
AcDbBlockEnd
  0
ENDSEC
  0
SECTION
  2
ENTITIES
  0
MTEXT
  5
1A5
330
1F
100
AcDbEntity
  8
0
100
AcDbMText
 10
585.4772876453869
 20
219.9369134370018
 30
0.0
 40
0.18
 41
0.0
 46
0.0
 71
     4
 72
     1
  1
\A1;
 73
     1
 44
1.0
  0
MTEXT
  5
2B5
330
1F
100
AcDbEntity
  8
0
100
AcDbMText
 10
667.2736735372873
 20
489.337414638963
 30
0.0
 40
6.0
 41
0.0
 46
0.0
 71
     9
 72
     1
  1
\A1;  KRYSTOL T1 COATING\P0.8 kg/m{\H0.7x;\S2^ ;} (1.5 lbs./yd{\H0.7x;\S2^ ;})
 73
     1
 44
1.0
  0
MTEXT
  5
2B7
330
1F
100
AcDbEntity
  8
0
100
AcDbMText
 10
585.4772876453869
 20
171.3704685515999
 30
0.0
 40
0.18
 41
0.0
 46
0.0
 71
     4
 72
     1
  1
\A1;
 73
     1
 44
1.0
  0
LINE
  5
2B8
330
1F
100
AcDbEntity
  8
0
100
AcDbLine
 10
507.2239497912153
 20
476.96945443826
 30
0.0
 11
507.2239497912153
 21
437.3347716372127
 31
0.0
  0
LINE
  5
2B9
330
1F
100
AcDbEntity
  8
0
100
AcDbLine
 10
481.8239497912152
 20
437.3347716372127
 30
0.0
 11
481.8239497912152
 21
476.96945443826
 31
0.0
  0
LINE
  5
2BE
330
1F
100
AcDbEntity
  8
0
100
AcDbLine
 10
275.2239497912673
 20
431.3507219379476
 30
0.0
 11
275.223949791215
 21
489.9285836832942
 31
0.0
  0
LINE
  5
2BF
330
1F
100
AcDbEntity
  8
0
100
AcDbLine
 10
275.2239497912673
 20
383.2730857330484
 30
0.0
 11
275.2239497912675
 21
320.4495606020192
 31
0.0
  0
LINE
  5
2C0
330
1F
100
AcDbEntity
  8
0
100
AcDbLine
 10
714.1062263943828
 20
383.273085733048
 30
0.0
 11
714.1062263943832
 21
320.4495606020191
 31
0.0
  0
LINE
  5
2C1
330
1F
100
AcDbEntity
  8
0
100
AcDbLine
 10
714.1062263943828
 20
431.3507219379472
 30
0.0
 11
714.1062263943824
 21
489.9285836832969
 31
0.0
  0
LINE
  5
2C2
330
1F
100
AcDbEntity
  8
0
100
AcDbLine
 10
714.1062263943831
 20
337.2694544382588
 30
0.0
 11
275.2239497912673
 21
337.2694544382597
 31
0.0
  0
INSERT
  5
2C3
330
1F
100
AcDbEntity
  8
0
100
AcDbBlockReference
  2
joint line
 10
714.1062263943828
 20
407.3119038354976
 30
0.0
 41
-0.5999999999999944
 42
0.5999999999999944
 43
0.6
 50
270.0
  0
POINT
  5
32D
330
1F
100
AcDbEntity
  8
0
100
AcDbPoint
 10
507.2239497912153
 20
464.26945443826
 30
0.0
  0
POINT
  5
32E
330
1F
100
AcDbEntity
  8
0
100
AcDbPoint
 10
507.2239497912153
 20
451.5694544382601
 30
0.0
  0
LINE
  5
32F
330
1F
100
AcDbEntity
  8
0
100
AcDbLine
 10
507.2239497912153
 20
451.5694544382601
 30
0.0
 11
481.8239497912152
 21
451.5694544382601
 31
0.0
  0
LINE
  5
34A
330
1F
100
AcDbEntity
  8
0
100
AcDbLine
 10
494.5239497912152
 20
437.3347716372127
 30
0.0
 11
494.5239497912153
 21
337.2694544382601
 31
0.0
  0
MTEXT
  5
40E
102
{ACAD_XDICTIONARY
360
CA8
102
}
330
1F
100
AcDbEntity
  8
0
100
AcDbMText
 10
281.0138864716164
 20
305.2127415184808
 30
0.0
 40
10.8
 41
364.3202953280154
 46
29.56430539759992
 71
     1
 72
     5
  1
\pi72.779;LEAK OR JOINT REPAIR - SLAB TO SLAB\P\pi187.04;{\H0.55555x;REFER TO APPLICATION INSTRUCTION 5.12}
 73
     1
 44
1.0
  0
LINE
  5
473
330
1F
100
AcDbEntity
  8
0
100
AcDbLine
 10
494.9003185954386
 20
476.9694544382601
 30
0.0
 11
494.5239497912151
 21
476.96945443826
 31
0.0
  0
LINE
  5
59A
330
1F
100
AcDbEntity
  8
0
100
AcDbLine
 10
342.1239497912152
 20
476.9694544383596
 30
0.0
 11
275.2239497912152
 21
476.9694544383347
 31
0.0
  0
LINE
  5
59B
330
1F
100
AcDbEntity
  8
0
100
AcDbLine
 10
647.3003185954386
 20
476.9694544382601
 30
0.0
 11
714.1062263943827
 21
476.9694544382604
 31
0.0
  0
MTEXT
  5
5A1
330
1F
100
AcDbEntity
  8
0
100
AcDbMText
 10
575.7602479229169
 20
557.0500974327897
 30
0.0
 40
6.0
 41
179.6586858735128
 46
0.0
 71
     1
 72
     1
  1
KRYSTOL REPAIR GROUT
 73
     1
 44
1.0
  0
LEADER
  5
5B1
330
1F
100
AcDbEntity
  8
0
100
AcDbLeader
  3
Standard
 73
     0
 40
6.208731241473397
 41
63.14324693042292
 76
     3
 10
509.0778599137586
 20
445.9736559718025
 30
0.0
 10
560.1173049363101
 20
527.3453047375626
 30
0.0
 10
573.1054914165151
 20
527.3453047375626
 30
0.0
340
5B2
213
1.618822750072695
223
-3.715216523535815
233
0.0
1001
ACAD
1000
DSTYLE
1002
{
1070
   147
1040
0.09
1070
    77
1070
     0
1070
     3
1000
MM\X
1070
     4
1000
IN.
1070
    40
1040
60.0
1070
   143
1040
0.0393700787401575
1070
   148
1040
1.0
1070
   170
1070
     1
1070
   171
1070
     1
1070
   271
1070
     0
1070
   272
1070
     0
1070
   274
1070
     1
1002
}
  0
MTEXT
  5
5B2
102
{ACAD_REACTORS
330
5B1
102
}
330
1F
100
AcDbEntity
  8
0
100
AcDbMText
 10
576.8866686664424
 20
531.0605212610984
 30
0.0
 40
6.0
 41
120.5121771579606
 46
0.0
 71
     1
 72
     1
  1
KRYSTOL PLUG
 73
     1
 44
1.0
  0
MTEXT
  5
5BD
330
1F
100
AcDbEntity
  8
0
100
AcDbMText
 10
736.9812382397242
 20
626.1259165009345
 30
0.0
 40
10.8
 41
19.64416701626453
 46
0.0
 71
     1
 72
     1
  1
\A1;
 73
     1
 44
1.0
  0
LEADER
  5
5BF
330
1F
100
AcDbEntity
  8
0
100
AcDbLeader
  3
Standard
 76
     2
 10
559.1315584822551
 20
480.201749575869
 30
0.0
 10
574.9292049940615
 20
503.7083839932533
 30
0.0
213
-18.94690531678202
223
-29.95787244043802
233
0.0
1001
ACAD
1000
DSTYLE
1002
{
1070
   147
1040
0.09
1070
    77
1070
     0
1070
     3
1000
MM\X
1070
     4
1000
IN.
1070
    40
1040
60.0
1070
   143
1040
0.0393700787401575
1070
   148
1040
1.0
1070
   170
1070
     1
1070
   171
1070
     1
1070
   271
1070
     0
1070
   272
1070
     0
1070
   274
1070
     1
1002
}
  0
MTEXT
  5
5C0
330
1F
100
AcDbEntity
  8
0
100
AcDbMText
 10
276.9335483668134
 20
615.4201641830313
 30
0.0
 40
10.8
 41
19.64416701626453
 46
0.0
 71
     3
 72
     1
  1
\A1;
 73
     1
 44
1.0
  0
LINE
  5
60E
330
1F
100
AcDbEntity
  8
0
100
AcDbLine
 10
342.1239497912152
 20
476.96945443826
 30
0.0
 11
647.3003185954389
 21
476.96945443826
 31
0.0
  0
LINE
  5
6D0
102
{ACAD_REACTORS
330
74C
102
}
330
1F
100
AcDbEntity
  8
0
100
AcDbLine
 10
481.875
 20
476.96945443826
 30
0.0
 11
507.2239497912153
 21
476.9694544382601
 31
0.0
  0
DIMENSION
  5
70A
330
1F
100
AcDbEntity
  8
0
100
AcDbDimension
280
     0
  2
*D2
 10
494.5239497912151
 20
540.6886218973864
 30
0.0
 11
418.3706197995865
 21
540.6886218973864
 31
0.0
 70
    32
 71
     5
 42
152.3066599832572
 73
     0
 74
     0
 75
     0
  3
default
100
AcDbAlignedDimension
 13
342.217289807958
 23
477.0477760118834
 33
0.0
 14
494.5239497912151
 24
476.9694544382602
 34
0.0
100
AcDbRotatedDimension
1001
ACAD
1000
DSTYLE
1002
{
1070
   140
1040
0.11
1002
}
  0
DIMENSION
  5
72F
102
{ACAD_XDICTIONARY
360
73F
102
}
102
{ACAD_REACTORS
330
74C
102
}
330
1F
100
AcDbEntity
  8
0
100
AcDbDimension
280
     0
  2
*D3
 10
417.9159176297447
 20
437.3347716372127
 30
0.0
 11
417.9159176297446
 21
460.7030761480016
 31
0.0
 70
   160
 71
     5
 42
39.63468280104735
 73
     0
 74
     0
 75
     0
  3
default
100
AcDbAlignedDimension
 13
481.875
 23
476.96945443826
 33
0.0
 14
482.4540070059656
 24
437.3347716372127
 34
0.0
 50
90.0
100
AcDbRotatedDimension
1001
ACAD
1000
DSTYLE
1002
{
1070
   140
1040
0.11
1070
     4
1000
[] IN.
1070
   148
1040
0.5
1002
}
  0
HATCH
  5
A11
330
1F
100
AcDbEntity
  8
0
100
AcDbHatch
 10
0.0
 20
0.0
 30
0.0
210
0.0
220
0.0
230
1.0
  2
ANSI38
 70
     0
 71
     0
 91
        1
 92
        7
 72
     0
 73
     1
 93
        4
 10
507.2239497912153
 20
476.96945443826
 10
481.8239497912152
 20
476.96945443826
 10
481.8239497912152
 20
451.5694544382601
 10
507.2239497912153
 20
451.5694544382601
 97
        0
 75
     0
 76
     1
 52
0.0
 41
30.0
 77
     0
 78
     2
 53
45.0
 43
0.0
 44
0.0
 45
-2.651650429449552
 46
2.651650429449553
 79
     0
 53
135.0
 43
0.0
 44
0.0
 45
-7.954951288348659
 46
2.651650429449553
 79
     2
 49
9.375
 49
-5.625
 47
0.1582420025170541
 98
        1
 10
497.9307953404913
 20
461.9871624520628
1001
ACAD
1010
0.0
1020
0.0
1030
0.0
  0
LEADER
  5
A27
330
1F
100
AcDbEntity
  8
0
100
AcDbLeader
  3
Standard
 73
     0
 40
6.208731241473397
 41
63.14324693042292
 76
     3
 10
500.7961069030854
 20
477.7451229347893
 30
0.0
 10
550.4441207939217
 20
554.2827069735331
 30
0.0
 10
572.6576215255568
 20
554.2053453553342
 30
0.0
340
5B2
213
-48.12339507560091
223
4.360905679647288
233
0.0
1001
ACAD
1000
DSTYLE
1002
{
1070
   147
1040
0.09
1070
    77
1070
     0
1070
     3
1000
MM\X
1070
     4
1000
IN.
1070
    40
1040
60.0
1070
   143
1040
0.0393700787401575
1070
   148
1040
1.0
1070
   170
1070
     1
1070
   171
1070
     1
1070
   271
1070
     0
1070
   272
1070
     0
1070
   274
1070
     1
1002
}
  0
DIMENSION
  5
A2D
330
1F
100
AcDbEntity
  8
0
100
AcDbDimension
280
     0
  2
*D5
 10
457.6661021516875
 20
476.96945443826
 30
0.0
 11
457.6661021516875
 21
464.2694544382601
 31
0.0
 70
   160
 71
     5
 42
25.39999999999987
 73
     0
 74
     0
 75
     0
  3
Standard
100
AcDbAlignedDimension
 13
481.8239497912152
 23
451.5694544382601
 33
0.0
 14
481.8239497912152
 24
476.96945443826
 34
0.0
 50
90.0
100
AcDbRotatedDimension
1001
ACAD
1000
DSTYLE
1002
{
1070
   140
1040
0.11
1070
     3
1000
 MM\X
1070
     4
1000
 IN.
1070
    40
1040
60.0
1070
   143
1040
0.0393700787401575
1070
   148
1040
1.0
1070
   170
1070
     1
1070
   171
1070
     1
1070
   271
1070
     0
1070
   272
1070
     0
1070
   274
1070
     1
1002
}
  0
LINE
  5
AC1
102
{ACAD_REACTORS
330
C6B
102
}
330
1F
100
AcDbEntity
  8
0
100
AcDbLine
 10
481.8239497912152
 20
437.3347716372127
 30
0.0
 11
507.2239497912153
 21
437.3347716372127
 31
0.0
  0
HATCH
  5
ACA
330
1F
100
AcDbEntity
  8
0
100
AcDbHatch
 10
0.0
 20
0.0
 30
0.0
210
0.0
220
0.0
230
1.0
  2
SACNCR
 70
     0
 71
     0
 91
        1
 92
        7
 72
     0
 73
     1
 93
        4
 10
507.2239497912153
 20
451.5694544382601
 10
481.8239497912151
 20
451.5694544382601
 10
481.8239497912152
 20
437.3347716372127
 10
507.2239497912152
 20
437.3347716372127
 97
        0
 75
     0
 76
     1
 52
0.0
 41
1.0
 77
     0
 78
     2
 53
45.0
 43
0.0
 44
0.0
 45
-0.0662912607362388
 46
0.0662912607362388
 79
     0
 53
45.0
 43
0.066291261
 44
0.0
 45
-0.0662912607362388
 46
0.0662912607362388
 79
     2
 49
0.0
 49
-0.09375
 47
0.0941562869253233
 98
        1
 10
498.6107543452772
 20
443.7542668214173
1001
ACAD
1010
0.0
1020
0.0
1030
0.0
  0
LINE
  5
AD6
330
1F
100
AcDbEntity
  8
0
100
AcDbLine
 10
342.1239497912152
 20
476.9694544383596
 30
0.0
 11
342.1239497912152
 21
479.9694544383596
 31
0.0
  0
LINE
  5
AD7
330
1F
100
AcDbEntity
  8
0
100
AcDbLine
 10
342.1239497912152
 20
479.9694544383596
 30
0.0
 11
646.1239497912152
 21
479.9694544383596
 31
0.0
  0
LINE
  5
AD8
330
1F
100
AcDbEntity
  8
0
100
AcDbLine
 10
646.1239497912152
 20
479.9694544383596
 30
0.0
 11
646.1239497912152
 21
476.9694544382599
 31
0.0
  0
HATCH
  5
AE5
330
1F
100
AcDbEntity
  8
0
100
AcDbHatch
 10
0.0
 20
0.0
 30
0.0
210
0.0
220
0.0
230
1.0
  2
NET3
 70
     0
 71
     0
 91
        1
 92
        7
 72
     0
 73
     1
 93
        4
 10
646.1239497912152
 20
479.9694544383596
 10
342.1239497912152
 20
479.9694544383596
 10
342.1239497912152
 20
476.9694544382601
 10
646.123949791215
 20
476.9694544382598
 97
        0
 75
     0
 76
     1
 52
0.0
 41
30.0
 77
     0
 78
     3
 53
0.0
 43
0.0
 44
0.0
 45
0.0
 46
3.75
 79
     0
 53
60.0
 43
0.0
 44
0.0
 45
-3.247595264191644
 46
1.875
 79
     0
 53
120.0
 43
0.0
 44
0.0
 45
-3.247595264191645
 46
-1.874999999999999
 79
     0
 47
0.3315720794073445
 98
        2
 10
482.3325192359361
 20
479.053972649639
 10
550.9842845239254
 20
479.3855431328129
1001
ACAD
1010
0.0
1020
0.0
1030
0.0
  0
INSERT
  5
AEE
330
1F
100
AcDbEntity
  8
0
100
AcDbBlockReference
  2
joint line
 10
1461.364417406211
 20
407.3119038354979
 30
0.0
 41
-0.5999999999999944
 42
0.5999999999999944
 43
0.6
 50
270.0
  0
INSERT
  5
AEF
330
1F
100
AcDbEntity
  8
0
100
AcDbBlockReference
  2
joint line
 10
275.2239497912673
 20
407.3119038354979
 30
0.0
 41
-0.5999999999999944
 42
0.5999999999999944
 43
0.6
 50
270.0
  0
HATCH
  5
B8F
330
1F
100
AcDbEntity
  8
0
100
AcDbHatch
 10
0.0
 20
0.0
 30
0.0
210
0.0
220
0.0
230
1.0
  2
AR-CONC
 70
     0
 71
     0
 91
        3
 92
        7
 72
     0
 73
     1
 93
       14
 10
494.5239497912152
 20
437.3347716372127
 10
481.8239497912151
 20
437.3347716372126
 10
481.8239497912151
 20
476.9694544382601
 10
342.1239497912152
 20
476.96945443826
 10
275.2239497912266
 20
476.9694544383347
 10
275.2239497912673
 20
431.3507219379476
 10
275.2239497912673
 20
416.1107219379476
 10
290.463949791267
 20
407.3119038354979
 10
275.2239497912673
 20
407.3119038354979
 10
259.9839497912673
 20
407.3119038354979
 10
275.2239497912673
 20
398.5130857330482
 10
275.2239497912673
 20
383.2730857330484
 10
275.2239497912674
 20
337.2694544382597
 10
494.5239497912153
 20
337.2694544382593
 97
        0
 92
       24
 93
        4
 72
     1
 10
399.1423842054609
 20
472.0962548656005
 11
436.6894510540284
 21
472.0962548656005
 72
     1
 10
436.6894510540284
 20
472.0962548656005
 11
436.6894510540284
 21
449.3098974304026
 72
     1
 10
436.6894510540284
 20
449.3098974304026
 11
399.1423842054609
 21
449.3098974304026
 72
     1
 10
399.1423842054609
 20
449.3098974304026
 11
399.1423842054609
 21
472.0962548656005
 97
        0
 92
       24
 93
        4
 72
     1
 10
438.8925687274037
 20
475.6626331558591
 11
476.4396355759712
 21
475.6626331558591
 72
     1
 10
476.4396355759712
 20
475.6626331558591
 11
476.4396355759712
 21
452.8762757206612
 72
     1
 10
476.4396355759712
 20
452.8762757206612
 11
438.8925687274037
 21
452.8762757206612
 72
     1
 10
438.8925687274037
 20
452.8762757206612
 11
438.8925687274037
 21
475.6626331558591
 97
        0
 75
     0
 76
     1
 52
0.0
 41
6.0
 77
     0
 78
    13
 53
50.0
 43
0.0
 44
0.0
 45
43.0356109560452
 46
-3.765128098955706
 79
     2
 49
4.5
 49
-49.5
 53
355.0
 43
0.0
 44
0.0
 45
-8.325080016779999
 46
45.1315280220007
 79
     2
 49
3.599999999999999
 49
-39.59999999999999
 53
100.4514
 43
3.5863008
 44
-0.3137604
 45
34.7105629028413
 46
41.36637252365722
 79
     2
 49
3.8244114
 49
-42.06852671999999
 53
46.1842
 43
0.0
 44
12.0
 45
64.03446291753866
 46
-9.931140859741084
 79
     2
 49
6.75
 49
-74.25
 53
96.6356
 43
5.336204699999999
 44
11.17240158
 45
56.0797623329222
 46
58.4470722540265
 79
     2
 49
5.736617279999999
 49
-63.10278
 53
351.1842000000001
 43
0.0
 44
12.0
 45
56.07971670801763
 46
58.44711605551947
 79
     2
 49
5.4
 49
-59.40000000000001
 53
21.0
 43
6.0
 44
9.0
 45
35.8144231271077
 46
-24.15713343992033
 79
     2
 49
4.5
 49
-49.5
 53
326.0
 43
6.0
 44
9.0
 45
14.5989199152949
 46
43.50900270281118
 79
     2
 49
3.599999999999999
 49
-39.59999999999999
 53
71.45140000000001
 43
8.98453398
 44
6.986903639999999
 45
50.4133577148894
 46
19.35182980259714
 79
     2
 49
3.8244114
 49
-42.06852671999999
 53
37.5
 43
0.0
 44
0.0
 45
0.7295913190374402
 46
19.97363122987869
 79
     6
 49
0.0
 49
-39.12
 49
0.0
 49
-40.2
 49
0.0
 49
-39.75
 53
7.499999999999999
 43
0.0
 44
0.0
 45
15.78417224652891
 46
23.66470271294161
 79
     6
 49
0.0
 49
-22.92
 49
0.0
 49
-38.22
 49
0.0
 49
-15.15
 53
327.5
 43
-13.38
 44
0.0
 45
32.02934617034455
 46
-1.353292304062787
 79
     6
 49
0.0
 49
-15.0
 49
0.0
 49
-46.79999999999999
 49
0.0
 49
-62.09999999999999
 53
317.5
 43
-19.38
 44
0.0
 45
34.99117016054318
 46
6.006298939939058
 79
     6
 49
0.0
 49
-19.5
 49
0.0
 49
-31.08
 49
0.0
 49
-44.09999999999999
 47
0.5618921825572386
 98
        1
 10
359.7571827099878
 20
409.0929463564182
1001
ACAD
1010
0.0
1020
0.0
1030
0.0
  0
HATCH
  5
BA4
330
1F
100
AcDbEntity
  8
0
100
AcDbHatch
 10
0.0
 20
0.0
 30
0.0
210
0.0
220
0.0
230
1.0
  2
AR-CONC
 70
     0
 71
     0
 91
        1
 92
        7
 72
     0
 73
     1
 93
       14
 10
714.1062263943829
 20
398.5130857330478
 10
698.8662263943828
 20
407.3119038354976
 10
714.1062263943828
 20
407.3119038354976
 10
729.3462263943825
 20
407.3119038354976
 10
714.1062263943828
 20
416.1107219379474
 10
714.1062263943828
 20
431.3507219379472
 10
714.1062263943825
 20
476.9694544382605
 10
647.3003185954386
 20
476.9694544382601
 10
507.2239497912153
 20
476.96945443826
 10
507.2239497912152
 20
437.3347716372127
 10
494.5239497912153
 20
437.3347716372127
 10
494.5239497912153
 20
337.2694544382592
 10
714.1062263943831
 20
337.2694544382587
 10
714.1062263943828
 20
383.273085733048
 97
        0
 75
     0
 76
     1
 52
0.0
 41
6.0
 77
     0
 78
    13
 53
50.0
 43
0.0
 44
0.0
 45
43.0356109560452
 46
-3.765128098955706
 79
     2
 49
4.5
 49
-49.5
 53
355.0
 43
0.0
 44
0.0
 45
-8.325080016779999
 46
45.1315280220007
 79
     2
 49
3.599999999999999
 49
-39.59999999999999
 53
100.4514
 43
3.5863008
 44
-0.3137604
 45
34.7105629028413
 46
41.36637252365722
 79
     2
 49
3.8244114
 49
-42.06852671999999
 53
46.1842
 43
0.0
 44
12.0
 45
64.03446291753866
 46
-9.931140859741084
 79
     2
 49
6.75
 49
-74.25
 53
96.6356
 43
5.336204699999999
 44
11.17240158
 45
56.0797623329222
 46
58.4470722540265
 79
     2
 49
5.736617279999999
 49
-63.10278
 53
351.1842000000001
 43
0.0
 44
12.0
 45
56.07971670801763
 46
58.44711605551947
 79
     2
 49
5.4
 49
-59.40000000000001
 53
21.0
 43
6.0
 44
9.0
 45
35.8144231271077
 46
-24.15713343992033
 79
     2
 49
4.5
 49
-49.5
 53
326.0
 43
6.0
 44
9.0
 45
14.5989199152949
 46
43.50900270281118
 79
     2
 49
3.599999999999999
 49
-39.59999999999999
 53
71.45140000000001
 43
8.98453398
 44
6.986903639999999
 45
50.4133577148894
 46
19.35182980259714
 79
     2
 49
3.8244114
 49
-42.06852671999999
 53
37.5
 43
0.0
 44
0.0
 45
0.7295913190374402
 46
19.97363122987869
 79
     6
 49
0.0
 49
-39.12
 49
0.0
 49
-40.2
 49
0.0
 49
-39.75
 53
7.499999999999999
 43
0.0
 44
0.0
 45
15.78417224652891
 46
23.66470271294161
 79
     6
 49
0.0
 49
-22.92
 49
0.0
 49
-38.22
 49
0.0
 49
-15.15
 53
327.5
 43
-13.38
 44
0.0
 45
32.02934617034455
 46
-1.353292304062787
 79
     6
 49
0.0
 49
-15.0
 49
0.0
 49
-46.79999999999999
 49
0.0
 49
-62.09999999999999
 53
317.5
 43
-19.38
 44
0.0
 45
34.99117016054318
 46
6.006298939939058
 79
     6
 49
0.0
 49
-19.5
 49
0.0
 49
-31.08
 49
0.0
 49
-44.09999999999999
 47
0.5618921825572386
 98
        1
 10
639.1430667796026
 20
387.7410428473697
1001
ACAD
1010
0.0
1020
0.0
1030
0.0
  0
DIMENSION
  5
C50
102
{ACAD_XDICTIONARY
360
C5F
102
}
102
{ACAD_REACTORS
330
C6B
102
}
330
1F
100
AcDbEntity
  8
0
100
AcDbDimension
280
     0
  2
*D6
 10
507.2239497912153
 20
424.373260068631
 30
0.0
 11
551.3474832154989
 21
424.373260068631
 31
0.0
 70
   160
 71
     5
 42
25.40000000000004
 73
     0
 74
     0
 75
     0
  3
Standard
100
AcDbAlignedDimension
 13
481.8239497912152
 23
437.3347716372127
 33
0.0
 14
507.2239497912153
 24
437.3347716372127
 34
0.0
100
AcDbRotatedDimension
1001
ACAD
1000
DSTYLE
1002
{
1070
   140
1040
0.11
1070
     3
1000
 MM\X
1070
     4
1000
 IN.
1070
    40
1040
60.0
1070
   143
1040
0.0393700787401575
1070
   148
1040
1.0
1070
   170
1070
     1
1070
   171
1070
     1
1070
   271
1070
     0
1070
   272
1070
     0
1070
   274
1070
     1
1002
}
  0
VIEWPORT
  5
80D
102
{ACAD_XDICTIONARY
360
80E
102
}
330
5D
100
AcDbEntity
 67
     1
  8
0
100
AcDbViewport
 10
8.996078549903204
 20
4.68347398977429
 30
0.0
 40
20.20006131958899
 41
11.3635534622708
 68
     1
 69
     1
 12
8.996078549903204
 22
4.68347398977429
 13
0.0
 23
0.0
 14
0.5
 24
0.5
 15
0.5
 25
0.5
 16
0.0
 26
0.0
 36
1.0
 17
0.0
 27
0.0
 37
0.0
 42
50.0
 43
0.0
 44
0.0
 45
11.3635534622708
 50
0.0
 51
0.0
 72
  1000
 90
   819232
  1

281
     0
 71
     1
 74
     0
110
0.0
120
0.0
130
0.0
111
1.0
121
0.0
131
0.0
112
0.0
122
1.0
132
0.0
 79
     0
146
0.0
170
     0
 61
     5
348
783
292
     1
282
     1
141
0.0
142
0.0
 63
   250
421
  3355443
  0
VIEWPORT
  5
812
102
{ACAD_XDICTIONARY
360
813
102
}
330
5D
100
AcDbEntity
 67
     1
  8
0
100
AcDbViewport
 10
5.26479826831828
 20
4.007395455853448
 30
0.0
 40
11.20254889926892
 41
8.638012943452267
 68
     2
 69
     2
 12
495.5797794919782
 22
436.8899072670004
 13
0.0
 23
0.0
 14
0.5
 24
0.5
 15
6.0
 25
6.0
 16
0.0
 26
0.0
 36
1.0
 17
0.0
 27
0.0
 37
0.0
 42
50.0
 43
0.0
 44
0.0
 45
471.0633653224999
 50
0.0
 51
0.0
 72
  1000
 90
   819296
  1

281
     0
 71
     1
 74
     0
110
0.0
120
0.0
130
0.0
111
1.0
121
0.0
131
0.0
112
0.0
122
1.0
132
0.0
 79
     0
146
0.0
170
     0
 61
     5
348
783
292
     1
282
     1
141
0.0
142
0.0
 63
   250
421
  3355443
  0
ENDSEC
  0
SECTION
  2
OBJECTS
  0
DICTIONARY
  5
C
330
0
100
AcDbDictionary
281
     1
  3
ACAD_CIP_PREVIOUS_PRODUCT_INFO
350
CC0
  3
ACAD_COLOR
350
73
  3
ACAD_DETAILVIEWSTYLE
350
CB8
  3
ACAD_GROUP
350
D
  3
ACAD_LAYOUT
350
1A
  3
ACAD_MATERIAL
350
72
  3
ACAD_MLEADERSTYLE
350
7B2
  3
ACAD_MLINESTYLE
350
17
  3
ACAD_PLOTSETTINGS
350
19
  3
ACAD_PLOTSTYLENAME
350
E
  3
ACAD_SCALELIST
350
790
  3
ACAD_SECTIONVIEWSTYLE
350
CB6
  3
ACAD_TABLESTYLE
350
78E
  3
ACAD_VISUALSTYLE
350
77D
  3
AcadDim
350
5C8
  3
ACDB_RECOMPOSE_DATA
350
D1E
  3
AcDbVariableDictionary
350
66
  0
DICTIONARY
  5
82B
330
2
100
AcDbDictionary
280
     1
281
     1
  3
ACAD_LAYERSTATES
360
82C
  0
DICTIONARY
  5
815
330
10
100
AcDbDictionary
280
     1
281
     1
  3
ADSK_XREC_LAYER_RECONCILED
360
816
  0
DICTIONARY
  5
A12
330
1F
100
AcDbDictionary
280
     1
281
     1
  3
ACAD_SORTENTS
360
A13
  0
DICTIONARY
  5
137
330
135
100
AcDbDictionary
280
     1
281
     1
  0
DICTIONARY
  5
CA8
330
40E
100
AcDbDictionary
280
     1
281
     1
  3
ACAD_MTEXT_2008_RT
360
D1A
  0
DICTIONARY
  5
73F
330
72F
100
AcDbDictionary
280
     1
281
     1
  3
ACAD_DIMASSOC
360
74C
  0
DICTIONARY
  5
C5F
330
C50
100
AcDbDictionary
280
     1
281
     1
  3
ACAD_DIMASSOC
360
C6B
  0
DICTIONARY
  5
80E
330
80D
100
AcDbDictionary
280
     1
281
     1
  3
ASDK_XREC_ANNOTATION_SCALE_INFO
360
80F
  0
DICTIONARY
  5
813
330
812
100
AcDbDictionary
280
     1
281
     1
  3
ASDK_XREC_ANNOTATION_SCALE_INFO
360
814
  0
XRECORD
  5
CC0
102
{ACAD_REACTORS
330
C
102
}
330
C
100
AcDbXrecord
280
     1
300
ACD
300
2014
300
ACD_F_S
  0
DICTIONARY
  5
73
102
{ACAD_REACTORS
330
C
102
}
330
C
100
AcDbDictionary
281
     1
  0
DICTIONARY
  5
CB8
102
{ACAD_REACTORS
330
C
102
}
330
C
100
AcDbDictionary
281
     1
  3
Imperial24
350
CB9
  0
DICTIONARY
  5
D
102
{ACAD_REACTORS
330
C
102
}
330
C
100
AcDbDictionary
281
     1
  0
DICTIONARY
  5
1A
102
{ACAD_REACTORS
330
C
102
}
330
C
100
AcDbDictionary
281
     1
  3
Layout1
350
59
  3
Layout2
350
5E
  3
Model
350
22
  0
DICTIONARY
  5
72
102
{ACAD_REACTORS
330
C
102
}
330
C
100
AcDbDictionary
281
     1
  3
ByBlock
350
76D
  3
ByLayer
350
765
  3
Global
350
775
  0
DICTIONARY
  5
7B2
102
{ACAD_REACTORS
330
C
102
}
330
C
100
AcDbDictionary
281
     1
  3
Standard
350
7B3
  0
DICTIONARY
  5
17
102
{ACAD_REACTORS
330
C
102
}
330
C
100
AcDbDictionary
281
     1
  3
Standard
350
18
  0
DICTIONARY
  5
19
102
{ACAD_REACTORS
330
C
102
}
330
C
100
AcDbDictionary
281
     1
  0
ACDBDICTIONARYWDFLT
  5
E
102
{ACAD_REACTORS
330
C
102
}
330
C
100
AcDbDictionary
281
     1
  3
Normal
350
F
100
AcDbDictionaryWithDefault
340
F
  0
DICTIONARY
  5
790
102
{ACAD_REACTORS
330
C
102
}
330
C
100
AcDbDictionary
281
     1
  3
A0
350
791
  3
A1
350
792
  3
A2
350
793
  3
A3
350
794
  3
A4
350
795
  3
A5
350
796
  3
A6
350
797
  3
A7
350
798
  3
A8
350
799
  3
A9
350
79A
  3
B0
350
79B
  3
B1
350
79C
  3
B2
350
79D
  3
B3
350
79E
  3
B4
350
79F
  3
B5
350
7A0
  3
B6
350
7A1
  3
B7
350
7A2
  3
B8
350
7A3
  3
B9
350
7A4
  3
C0
350
7A5
  3
C1
350
7A6
  3
C2
350
7A7
  3
C3
350
7A8
  3
C4
350
7A9
  3
C5
350
7AA
  3
C6
350
7AB
  3
C7
350
7AC
  3
C8
350
7AD
  3
C9
350
7AE
  3
D0
350
7AF
  3
D1
350
7B0
  3
D2
350
7B1
  0
DICTIONARY
  5
CB6
102
{ACAD_REACTORS
330
C
102
}
330
C
100
AcDbDictionary
281
     1
  3
Imperial24
350
CB7
  0
DICTIONARY
  5
78E
102
{ACAD_REACTORS
330
C
102
}
330
C
100
AcDbDictionary
281
     1
  3
Standard
350
78F
  0
DICTIONARY
  5
77D
102
{ACAD_REACTORS
330
C
102
}
330
C
100
AcDbDictionary
281
     1
  3
2dWireframe
350
783
  3
3D Hidden
350
785
  3
3dWireframe
350
784
  3
Basic
350
782
  3
Brighten
350
789
  3
ColorChange
350
78D
  3
Conceptual
350
786
  3
Dim
350
788
  3
EdgeColorOff
350
CB5
  3
Facepattern
350
78C
  3
Flat
350
77E
  3
FlatWithEdges
350
77F
  3
Gouraud
350
780
  3
GouraudWithEdges
350
781
  3
Hidden
350
CAD
  3
JitterOff
350
CB3
  3
Linepattern
350
78B
  3
OverhangOff
350
CB4
  3
Realistic
350
787
  3
Shaded
350
CB2
  3
Shaded with edges
350
CB1
  3
Shades of Gray
350
CAE
  3
Sketchy
350
CAF
  3
Thicken
350
78A
  3
Wireframe
350
CAC
  3
X-Ray
350
CB0
  0
XRECORD
  5
5C8
102
{ACAD_REACTORS
330
C
102
}
330
C
100
AcDbXrecord
280
     1
 90
   990106
  3

 60
     0
 61
     0
 62
     1
 63
     1
 64
     0
 65
     0
 66
     0
 67
     4
 68
     1
 69
     0
 70
     0
 71
     0
 72
     0
 40
19.64416701626453
170
     1
340
5C0
  0
XRECORD
  5
D1E
102
{ACAD_REACTORS
330
C
102
}
330
C
100
AcDbXrecord
280
     1
 90
        1
330
40E
330
78F
330
CB7
330
CB9
  0
DICTIONARY
  5
66
102
{ACAD_REACTORS
330
C
102
}
330
C
100
AcDbDictionary
281
     1
  3
CANNOSCALE
350
841
  3
CMLEADERSTYLE
350
83F
  3
CTABLESTYLE
350
83E
  3
CVIEWDETAILSTYLE
350
CFB
  3
CVIEWSECTIONSTYLE
350
CFC
  3
DIMASSOC
350
67
  3
HIDETEXT
350
6B
  3
LAYEREVAL
350
CFD
  3
LAYERNOTIFY
350
CFE
  3
LIGHTINGUNITS
350
842
  3
MSLTSCALE
350
840
  0
DICTIONARY
  5
82C
102
{ACAD_REACTORS
330
82B
102
}
330
82B
100
AcDbDictionary
281
     1
  0
XRECORD
  5
816
102
{ACAD_REACTORS
330
815
102
}
330
815
100
AcDbXrecord
280
     1
290
     1
  0
SORTENTSTABLE
  5
A13
102
{ACAD_REACTORS
330
A12
102
}
330
A12
100
AcDbSortentsTable
330
1F
331
AD8
  5
AEE
331
473
  5
5A1
331
A2D
  5
AD6
331
40E
  5
59B
331
BA4
  5
2BA
331
2C0
  5
2C3
331
ACA
  5
2B9
331
2B5
  5
2B5
331
B8F
  5
B90
331
A27
  5
AC2
331
70A
  5
A2D
331
5BF
  5
6D0
331
6D0
  5
A27
331
AEE
  5
AEF
331
2C1
  5
32D
331
AC1
  5
AD7
331
5C0
  5
70A
331
59A
  5
5A3
331
AEF
  5
B7C
331
A11
  5
2B8
331
2B7
  5
2B7
331
72F
  5
AC1
331
2C2
  5
32E
331
5B1
  5
5BF
331
34A
  5
4A8
331
AE5
  5
72F
331
2B8
  5
2BE
331
32D
  5
33A
331
59B
  5
5B1
331
1A5
  5
1A5
331
2C3
  5
32F
331
AD6
  5
AD8
331
2BE
  5
2C1
331
5A1
  5
5BC
331
5B2
  5
5C0
331
32E
  5
40E
331
2B9
  5
2C0
331
5BD
  5
60E
331
60E
  5
A09
331
AD7
  5
AD9
331
2BF
  5
2C2
331
32F
  5
473
  0
XRECORD
  5
D1A
102
{ACAD_REACTORS
330
CA8
102
}
330
CA8
100
AcDbXrecord
280
     1
 40
398605.0
  1
\pxqr;LEAK OR JOINT REPAIR - SLAB TO SLAB\P{\H0.55555x;REFER TO APPLICATION INSTRUCTION 5.12}
  0
DIMASSOC
  5
74C
102
{ACAD_REACTORS
330
73F
102
}
330
73F
100
AcDbDimAssoc
330
72F
 90
        1
 70
     0
 71
     0
  1
AcDbOsnapPointRef
 72
    13
331
6D0
 73
     2
 91
        0
 40
0.0
 10
0.0
 20
0.0
 30
2.000000000000000E+50
 75
     0
  0
DIMASSOC
  5
C6B
102
{ACAD_REACTORS
330
C5F
102
}
330
C5F
100
AcDbDimAssoc
330
C50
 90
        3
 70
     0
 71
     0
  1
AcDbOsnapPointRef
 72
    13
331
AC1
 73
     2
 91
        0
 40
0.0
 10
0.0
 20
0.0
 30
2.000000000000000E+50
 75
     0
  1
AcDbOsnapPointRef
 72
     1
331
AC1
 73
     2
 91
        0
 40
1.0
 10
0.0
 20
0.0
 30
2.000000000000000E+50
 75
     0
  0
XRECORD
  5
80F
102
{ACAD_REACTORS
330
80E
102
}
330
80E
100
AcDbXrecord
280
     1
 90
        1
340
791
  0
XRECORD
  5
814
102
{ACAD_REACTORS
330
813
102
}
330
813
100
AcDbXrecord
280
     1
 90
        1
340
791
  0
ACDBDETAILVIEWSTYLE
  5
CB9
102
{ACAD_XDICTIONARY
360
CF8
102
}
102
{ACAD_REACTORS
330
CB8
102
}
330
CB8
100
AcDbModelDocViewStyle
 70
     0
  3
Imperial24
290
     0
100
AcDbDetailViewStyle
 70
     0
 71
     0
 90
        3
 71
     1
340
11
 62
   256
 40
0.24
340
0
 62
   256
 40
0.24
300

 40
0.36
280
     3
 71
     2
340
16
 90
       25
 62
   256
 71
     3
340
11
 62
   256
 40
0.24
 90
        1
 40
0.75
 90
        1
300
%<\AcVar ViewType \f "%tc1">% %<\AcVar ViewDetailId>%\PSCALE %<\AcVar ViewScale \f "%sn">%
 71
     4
340
16
 90
       25
 62
   256
340
16
 90
       25
 62
   256
280
     0
  0
LAYOUT
  5
59
102
{ACAD_XDICTIONARY
360
85F
102
}
102
{ACAD_REACTORS
330
1A
102
}
330
1A
100
AcDbPlotSettings
  1

  2
none_device
  4
Letter_(8.50_x_11.00_Inches)
  6

 40
6.349999904632568
 41
6.349999904632568
 42
6.350006103515625
 43
6.350006103515625
 44
215.8999938964844
 45
279.3999938964844
 46
0.0
 47
0.0
 48
0.0
 49
0.0
140
0.0
141
0.0
142
1.0
143
1.0
 70
   688
 72
     0
 73
     1
 74
     5
  7

 75
    16
147
1.0
 76
     1
 77
     2
 78
   300
148
0.0
149
0.0
100
AcDbLayout
  1
Layout1
 70
     1
 71
     1
 10
-0.2500002402958907
 20
-0.2499999962453767
 11
10.74999951940821
 21
8.249999763458731
 12
0.0
 22
0.0
 32
0.0
 14
1.049999952316284
 24
0.7999999523162842
 34
0.0
 15
9.449999570846555
 25
7.199999570846556
 35
0.0
146
0.0
 13
0.0
 23
0.0
 33
0.0
 16
1.0
 26
0.0
 36
0.0
 17
0.0
 27
1.0
 37
0.0
 76
     0
330
58
331
E5
  0
LAYOUT
  5
5E
102
{ACAD_XDICTIONARY
360
830
102
}
102
{ACAD_REACTORS
330
1A
102
}
330
1A
100
AcDbPlotSettings
  1

  2
none_device
  4
Letter_(8.50_x_11.00_Inches)
  6

 40
6.349999904632568
 41
6.349999904632568
 42
6.350006103515625
 43
6.350006103515625
 44
215.8999938964844
 45
279.3999938964844
 46
0.0
 47
0.0
 48
0.0
 49
0.0
140
0.0
141
0.0
142
1.0
143
1.0
 70
   688
 72
     0
 73
     1
 74
     5
  7

 75
    16
147
1.0
 76
     0
 77
     2
 78
   300
148
0.0
149
0.0
100
AcDbLayout
  1
Layout2
 70
     1
 71
     2
 10
-0.2500002402958907
 20
-0.2499999962453767
 11
10.74999951940822
 21
8.249999763458733
 12
0.0
 22
0.0
 32
0.0
 14
-0.3364761813161792
 24
-0.3116110158726855
 34
0.0
 15
10.86607271795274
 25
8.326401927579581
 35
0.0
146
0.0
 13
0.0
 23
0.0
 33
0.0
 16
1.0
 26
0.0
 36
0.0
 17
0.0
 27
1.0
 37
0.0
 76
     0
330
5D
331
80D
1001
ACAD_PSEXT
1000
None
1000
None
1000
Not applicable
1000
The layout will not be plotted unless a new plotter configuration name is selected.
1070
     0
  0
LAYOUT
  5
22
102
{ACAD_REACTORS
330
1A
102
}
330
1A
100
AcDbPlotSettings
  1

  2
none_device
  4
ANSI_A_(8.50_x_11.00_Inches)
  6

 40
6.349999904632568
 41
19.04999923706055
 42
6.350006103515625
 43
19.04998779296875
 44
215.8999938964844
 45
279.3999938964844
 46
0.0
 47
0.0
 48
0.0
 49
0.0
140
0.0
141
0.0
142
1.0
143
2.584895464708373
 70
 11952
 72
     0
 73
     1
 74
     0
  7

 75
     0
147
0.3868628397755418
 76
     0
 77
     2
 78
   300
148
0.0
149
0.0
100
AcDbLayout
  1
Model
 70
     1
 71
     0
 10
0.0
 20
0.0
 11
12.0
 21
9.0
 12
0.0
 22
0.0
 32
0.0
 14
0.0
 24
0.0
 34
0.0
 15
0.0
 25
0.0
 35
0.0
146
0.0
 13
0.0
 23
0.0
 33
0.0
 16
1.0
 26
0.0
 36
0.0
 17
0.0
 27
1.0
 37
0.0
 76
     0
330
1F
331
763
  0
MATERIAL
  5
76D
102
{ACAD_XDICTIONARY
360
76E
102
}
102
{ACAD_REACTORS
330
72
102
}
330
72
100
AcDbMaterial
  1
ByBlock
 72
     0
 43
0.0008202099737533
 43
0.0
 43
0.0
 43
0.0
 43
0.0
 43
0.0008202099737533
 43
0.0
 43
0.0
 43
0.0
 43
0.0
 43
1.0
 43
0.0
 43
0.0
 43
0.0
 43
0.0
 43
1.0
 77
     0
 47
0.0008202099737533
 47
0.0
 47
0.0
 47
0.0
 47
0.0
 47
0.0008202099737533
 47
0.0
 47
0.0
 47
0.0
 47
0.0
 47
1.0
 47
0.0
 47
0.0
 47
0.0
 47
0.0
 47
1.0
171
     0
 49
0.0008202099737533
 49
0.0
 49
0.0
 49
0.0
 49
0.0
 49
0.0008202099737533
 49
0.0
 49
0.0
 49
0.0
 49
0.0
 49
1.0
 49
0.0
 49
0.0
 49
0.0
 49
0.0
 49
1.0
175
     0
142
0.0008202099737533
142
0.0
142
0.0
142
0.0
142
0.0
142
0.0008202099737533
142
0.0
142
0.0
142
0.0
142
0.0
142
1.0
142
0.0
142
0.0
142
0.0
142
0.0
142
1.0
179
     0
144
0.0008202099737533
144
0.0
144
0.0
144
0.0
144
0.0
144
0.0008202099737533
144
0.0
144
0.0
144
0.0
144
0.0
144
1.0
144
0.0
144
0.0
144
0.0
144
0.0
144
1.0
147
0.0008202099737533
147
0.0
147
0.0
147
0.0
147
0.0
147
0.0008202099737533
147
0.0
147
0.0
147
0.0
147
0.0
147
1.0
147
0.0
147
0.0
147
0.0
147
0.0
147
1.0
  0
MATERIAL
  5
765
102
{ACAD_XDICTIONARY
360
766
102
}
102
{ACAD_REACTORS
330
72
102
}
330
72
100
AcDbMaterial
  1
ByLayer
 72
     0
 43
0.0008202099737533
 43
0.0
 43
0.0
 43
0.0
 43
0.0
 43
0.0008202099737533
 43
0.0
 43
0.0
 43
0.0
 43
0.0
 43
1.0
 43
0.0
 43
0.0
 43
0.0
 43
0.0
 43
1.0
 77
     0
 47
0.0008202099737533
 47
0.0
 47
0.0
 47
0.0
 47
0.0
 47
0.0008202099737533
 47
0.0
 47
0.0
 47
0.0
 47
0.0
 47
1.0
 47
0.0
 47
0.0
 47
0.0
 47
0.0
 47
1.0
171
     0
 49
0.0008202099737533
 49
0.0
 49
0.0
 49
0.0
 49
0.0
 49
0.0008202099737533
 49
0.0
 49
0.0
 49
0.0
 49
0.0
 49
1.0
 49
0.0
 49
0.0
 49
0.0
 49
0.0
 49
1.0
175
     0
142
0.0008202099737533
142
0.0
142
0.0
142
0.0
142
0.0
142
0.0008202099737533
142
0.0
142
0.0
142
0.0
142
0.0
142
1.0
142
0.0
142
0.0
142
0.0
142
0.0
142
1.0
179
     0
144
0.0008202099737533
144
0.0
144
0.0
144
0.0
144
0.0
144
0.0008202099737533
144
0.0
144
0.0
144
0.0
144
0.0
144
1.0
144
0.0
144
0.0
144
0.0
144
0.0
144
1.0
147
0.0008202099737533
147
0.0
147
0.0
147
0.0
147
0.0
147
0.0008202099737533
147
0.0
147
0.0
147
0.0
147
0.0
147
1.0
147
0.0
147
0.0
147
0.0
147
0.0
147
1.0
  0
MATERIAL
  5
775
102
{ACAD_XDICTIONARY
360
776
102
}
102
{ACAD_REACTORS
330
72
102
}
330
72
100
AcDbMaterial
  1
Global
 72
     0
 43
0.0008202099737533
 43
0.0
 43
0.0
 43
0.0
 43
0.0
 43
0.0008202099737533
 43
0.0
 43
0.0
 43
0.0
 43
0.0
 43
1.0
 43
0.0
 43
0.0
 43
0.0
 43
0.0
 43
1.0
 77
     0
 47
0.0008202099737533
 47
0.0
 47
0.0
 47
0.0
 47
0.0
 47
0.0008202099737533
 47
0.0
 47
0.0
 47
0.0
 47
0.0
 47
1.0
 47
0.0
 47
0.0
 47
0.0
 47
0.0
 47
1.0
171
     0
 49
0.0008202099737533
 49
0.0
 49
0.0
 49
0.0
 49
0.0
 49
0.0008202099737533
 49
0.0
 49
0.0
 49
0.0
 49
0.0
 49
1.0
 49
0.0
 49
0.0
 49
0.0
 49
0.0
 49
1.0
175
     0
142
0.0008202099737533
142
0.0
142
0.0
142
0.0
142
0.0
142
0.0008202099737533
142
0.0
142
0.0
142
0.0
142
0.0
142
1.0
142
0.0
142
0.0
142
0.0
142
0.0
142
1.0
179
     0
144
0.0008202099737533
144
0.0
144
0.0
144
0.0
144
0.0
144
0.0008202099737533
144
0.0
144
0.0
144
0.0
144
0.0
144
1.0
144
0.0
144
0.0
144
0.0
144
0.0
144
1.0
147
0.0008202099737533
147
0.0
147
0.0
147
0.0
147
0.0
147
0.0008202099737533
147
0.0
147
0.0
147
0.0
147
0.0
147
1.0
147
0.0
147
0.0
147
0.0
147
0.0
147
1.0
  0
MLEADERSTYLE
  5
7B3
102
{ACAD_REACTORS
330
7B2
102
}
330
7B2
100
AcDbMLeaderStyle
179
     2
170
     2
171
     1
172
     0
 90
        2
 40
0.0
 41
0.0
173
     1
 91
-1056964608
340
14
 92
       -2
290
     1
 42
0.09
291
     1
 43
0.36
  3
Standard
 44
0.18
300

342
11
174
     1
178
     6
175
     1
176
     0
 93
-1056964608
 45
0.18
292
     0
297
     0
 46
0.18
 94
-1056964608
 47
1.0
 49
1.0
140
1.0
293
     1
141
0.0
294
     1
177
     0
142
1.0
295
     0
296
     0
143
0.125
271
     0
272
     9
273
     9
298
     0
  0
MLINESTYLE
  5
18
102
{ACAD_REACTORS
330
17
102
}
330
17
100
AcDbMlineStyle
  2
STANDARD
 70
     0
  3

 62
   256
 51
90.0
 52
90.0
 71
     2
 49
0.5
 62
   256
  6
BYLAYER
 49
-0.5
 62
   256
  6
BYLAYER
  0
ACDBPLACEHOLDER
  5
F
102
{ACAD_REACTORS
330
E
102
}
330
E
  0
SCALE
  5
791
102
{ACAD_REACTORS
330
790
102
}
330
790
100
AcDbScale
 70
     0
300
1:1
140
1.0
141
1.0
290
     1
  0
SCALE
  5
792
102
{ACAD_REACTORS
330
790
102
}
330
790
100
AcDbScale
 70
     0
300
1:2
140
1.0
141
2.0
290
     0
  0
SCALE
  5
793
102
{ACAD_REACTORS
330
790
102
}
330
790
100
AcDbScale
 70
     0
300
1:4
140
1.0
141
4.0
290
     0
  0
SCALE
  5
794
102
{ACAD_REACTORS
330
790
102
}
330
790
100
AcDbScale
 70
     0
300
1:5
140
1.0
141
5.0
290
     0
  0
SCALE
  5
795
102
{ACAD_REACTORS
330
790
102
}
330
790
100
AcDbScale
 70
     0
300
1:8
140
1.0
141
8.0
290
     0
  0
SCALE
  5
796
102
{ACAD_REACTORS
330
790
102
}
330
790
100
AcDbScale
 70
     0
300
1:10
140
1.0
141
10.0
290
     0
  0
SCALE
  5
797
102
{ACAD_REACTORS
330
790
102
}
330
790
100
AcDbScale
 70
     0
300
1:16
140
1.0
141
16.0
290
     0
  0
SCALE
  5
798
102
{ACAD_REACTORS
330
790
102
}
330
790
100
AcDbScale
 70
     0
300
1:20
140
1.0
141
20.0
290
     0
  0
SCALE
  5
799
102
{ACAD_REACTORS
330
790
102
}
330
790
100
AcDbScale
 70
     0
300
1:30
140
1.0
141
30.0
290
     0
  0
SCALE
  5
79A
102
{ACAD_REACTORS
330
790
102
}
330
790
100
AcDbScale
 70
     0
300
1:40
140
1.0
141
40.0
290
     0
  0
SCALE
  5
79B
102
{ACAD_REACTORS
330
790
102
}
330
790
100
AcDbScale
 70
     0
300
1:50
140
1.0
141
50.0
290
     0
  0
SCALE
  5
79C
102
{ACAD_REACTORS
330
790
102
}
330
790
100
AcDbScale
 70
     0
300
1:100
140
1.0
141
100.0
290
     0
  0
SCALE
  5
79D
102
{ACAD_REACTORS
330
790
102
}
330
790
100
AcDbScale
 70
     0
300
2:1
140
2.0
141
1.0
290
     0
  0
SCALE
  5
79E
102
{ACAD_REACTORS
330
790
102
}
330
790
100
AcDbScale
 70
     0
300
4:1
140
4.0
141
1.0
290
     0
  0
SCALE
  5
79F
102
{ACAD_REACTORS
330
790
102
}
330
790
100
AcDbScale
 70
     0
300
8:1
140
8.0
141
1.0
290
     0
  0
SCALE
  5
7A0
102
{ACAD_REACTORS
330
790
102
}
330
790
100
AcDbScale
 70
     0
300
10:1
140
10.0
141
1.0
290
     0
  0
SCALE
  5
7A1
102
{ACAD_REACTORS
330
790
102
}
330
790
100
AcDbScale
 70
     0
300
100:1
140
100.0
141
1.0
290
     0
  0
SCALE
  5
7A2
102
{ACAD_REACTORS
330
790
102
}
330
790
100
AcDbScale
 70
     0
300
1/128" = 1'-0"
140
0.0078125
141
12.0
290
     0
  0
SCALE
  5
7A3
102
{ACAD_REACTORS
330
790
102
}
330
790
100
AcDbScale
 70
     0
300
1/64" = 1'-0"
140
0.015625
141
12.0
290
     0
  0
SCALE
  5
7A4
102
{ACAD_REACTORS
330
790
102
}
330
790
100
AcDbScale
 70
     0
300
1/32" = 1'-0"
140
0.03125
141
12.0
290
     0
  0
SCALE
  5
7A5
102
{ACAD_REACTORS
330
790
102
}
330
790
100
AcDbScale
 70
     0
300
1/16" = 1'-0"
140
0.0625
141
12.0
290
     0
  0
SCALE
  5
7A6
102
{ACAD_REACTORS
330
790
102
}
330
790
100
AcDbScale
 70
     0
300
3/32" = 1'-0"
140
0.09375
141
12.0
290
     0
  0
SCALE
  5
7A7
102
{ACAD_REACTORS
330
790
102
}
330
790
100
AcDbScale
 70
     0
300
1/8" = 1'-0"
140
0.125
141
12.0
290
     0
  0
SCALE
  5
7A8
102
{ACAD_REACTORS
330
790
102
}
330
790
100
AcDbScale
 70
     0
300
3/16" = 1'-0"
140
0.1875
141
12.0
290
     0
  0
SCALE
  5
7A9
102
{ACAD_REACTORS
330
790
102
}
330
790
100
AcDbScale
 70
     0
300
1/4" = 1'-0"
140
0.25
141
12.0
290
     0
  0
SCALE
  5
7AA
102
{ACAD_REACTORS
330
790
102
}
330
790
100
AcDbScale
 70
     0
300
3/8" = 1'-0"
140
0.375
141
12.0
290
     0
  0
SCALE
  5
7AB
102
{ACAD_REACTORS
330
790
102
}
330
790
100
AcDbScale
 70
     0
300
1/2" = 1'-0"
140
0.5
141
12.0
290
     0
  0
SCALE
  5
7AC
102
{ACAD_REACTORS
330
790
102
}
330
790
100
AcDbScale
 70
     0
300
3/4" = 1'-0"
140
0.75
141
12.0
290
     0
  0
SCALE
  5
7AD
102
{ACAD_REACTORS
330
790
102
}
330
790
100
AcDbScale
 70
     0
300
1" = 1'-0"
140
1.0
141
12.0
290
     0
  0
SCALE
  5
7AE
102
{ACAD_REACTORS
330
790
102
}
330
790
100
AcDbScale
 70
     0
300
1-1/2" = 1'-0"
140
1.5
141
12.0
290
     0
  0
SCALE
  5
7AF
102
{ACAD_REACTORS
330
790
102
}
330
790
100
AcDbScale
 70
     0
300
3" = 1'-0"
140
3.0
141
12.0
290
     0
  0
SCALE
  5
7B0
102
{ACAD_REACTORS
330
790
102
}
330
790
100
AcDbScale
 70
     0
300
6" = 1'-0"
140
6.0
141
12.0
290
     0
  0
SCALE
  5
7B1
102
{ACAD_REACTORS
330
790
102
}
330
790
100
AcDbScale
 70
     0
300
1'-0" = 1'-0"
140
12.0
141
12.0
290
     0
  0
ACDBSECTIONVIEWSTYLE
  5
CB7
102
{ACAD_XDICTIONARY
360
CF6
102
}
102
{ACAD_REACTORS
330
CB6
102
}
330
CB6
100
AcDbModelDocViewStyle
 70
     0
  3
Imperial24
290
     0
100
AcDbSectionViewStyle
 70
     0
 71
     0
 90
       78
 71
     1
340
11
 62
   256
 40
0.24
340
0
340
0
 62
   256
 40
0.24
300
I, O, Q, S, X, Z
 40
0.48
 90
        3
 40
0.18
 90
        1
 71
     2
340
16
 90
       25
 62
   256
340
16
 90
       50
 62
   256
 40
0.24
 40
0.0
 40
0.24
 71
     3
340
11
 62
   256
 40
0.24
 90
        1
 40
0.75
 90
        1
300
%<\AcVar ViewType \f "%tc1">% %<\AcVar ViewSectionStartId>%-%<\AcVar ViewSectionEndId>%\PSCALE %<\AcVar ViewScale \f "%sn">%
 71
     4
 62
   256
 62
   257
300
ANSI31
 40
1.0
 90
        0
290
     0
290
     0
 90
        6
 40
0.0
 40
1.570796326794896
 40
0.2617993877991494
 40
1.308996938995747
 40
-0.2617993877991494
 40
1.832595714594046
  0
TABLESTYLE
  5
78F
102
{ACAD_XDICTIONARY
360
83B
102
}
102
{ACAD_REACTORS
330
78E
102
}
330
78E
100
AcDbTableStyle
280
     0
  3
Standard
 70
     0
 71
     0
 40
0.06
 41
0.06
280
     0
281
     0
  7
Standard
140
0.18
170
     2
 62
     0
 63
     7
283
     0
 90
      512
 91
        0
  1

274
    -2
284
     1
 64
     0
275
    -2
285
     1
 65
     0
276
    -2
286
     1
 66
     0
277
    -2
287
     1
 67
     0
278
    -2
288
     1
 68
     0
279
    -2
289
     1
 69
     0
  7
Standard
140
0.25
170
     5
 62
     0
 63
     7
283
     0
 90
      512
 91
        0
  1

274
    -2
284
     1
 64
     0
275
    -2
285
     1
 65
     0
276
    -2
286
     1
 66
     0
277
    -2
287
     1
 67
     0
278
    -2
288
     1
 68
     0
279
    -2
289
     1
 69
     0
  7
Standard
140
0.18
170
     5
 62
     0
 63
     7
283
     0
 90
      512
 91
        0
  1

274
    -2
284
     1
 64
     0
275
    -2
285
     1
 65
     0
276
    -2
286
     1
 66
     0
277
    -2
287
     1
 67
     0
278
    -2
288
     1
 68
     0
279
    -2
289
     1
 69
     0
  0
VISUALSTYLE
  5
783
102
{ACAD_REACTORS
330
77D
102
}
330
77D
100
AcDbVisualStyle
  2
2dWireframe
 70
     4
177
     3
291
     0
 70
    58
 90
        0
176
     1
 90
        2
176
     1
 90
        0
176
     1
 90
        0
176
     1
 40
0.6
176
     1
 40
30.0
176
     1
 62
     7
420
 16777215
176
     1
 90
        1
176
     1
 90
        4
176
     1
 62
     7
176
     1
 62
   257
176
     1
 90
        1
176
     1
 90
        1
176
     1
 40
1.0
176
     1
 90
        0
176
     1
 62
   257
176
     1
 40
1.0
176
     1
 90
        1
176
     1
 90
        6
176
     1
 90
        2
176
     1
 62
     7
176
     1
 90
        5
176
     1
 90
        0
176
     1
 90
        0
176
     1
290
     0
176
     1
 90
        1
176
     1
 40
0.0
176
     1
 90
        0
176
     1
290
     1
176
     1
290
     1
176
     1
290
     0
176
     1
290
     0
176
     1
290
     0
176
     1
290
     0
176
     1
290
     0
176
     1
290
     0
176
     1
290
     0
176
     1
 90
       50
176
     1
 40
0.0
176
     1
 40
1.0
176
     1
 90
        0
176
     1
 62
    18
420
        0
176
     1
 90
       50
176
     1
 90
        3
176
     1
 62
     5
420
      255
176
     1
290
     0
176
     1
 90
       50
176
     1
 90
       50
176
     1
 90
       50
176
     1
290
     0
176
     1
 90
       50
176
     1
 62
   256
176
     0
 40
1.0
176
     0
 90
        2
176
     1
  1
strokes_ogs.tif
176
     1
290
     0
176
     1
 40
1.0
176
     1
 40
1.0
176
     1
  0
VISUALSTYLE
  5
785
102
{ACAD_REACTORS
330
77D
102
}
330
77D
100
AcDbVisualStyle
  2
3D Hidden
 70
     6
177
     3
291
     0
 70
    58
 90
        1
176
     1
 90
        2
176
     1
 90
        2
176
     1
 90
        0
176
     1
 40
0.6
176
     1
 40
30.0
176
     1
 62
     7
420
 16777215
176
     1
 90
        2
176
     1
 90
        2
176
     1
 62
     7
176
     1
 62
   257
176
     1
 90
        2
176
     1
 90
        1
176
     1
 40
40.0
176
     1
 90
        0
176
     1
 62
   257
176
     1
 40
1.0
176
     1
 90
        1
176
     1
 90
        6
176
     1
 90
        2
176
     1
 62
     7
176
     1
 90
        3
176
     1
 90
        0
176
     1
 90
        0
176
     1
290
     0
176
     1
 90
        1
176
     1
 40
0.0
176
     1
 90
        0
176
     1
290
     0
176
     1
290
     1
176
     1
290
     1
176
     1
290
     0
176
     1
290
     0
176
     1
290
     0
176
     1
290
     0
176
     1
290
     0
176
     1
290
     0
176
     1
 90
       50
176
     1
 40
0.0
176
     1
 40
1.0
176
     1
 90
        0
176
     1
 62
    18
420
        0
176
     1
 90
       50
176
     1
 90
        3
176
     1
 62
     5
420
      255
176
     1
290
     0
176
     1
 90
       50
176
     1
 90
       50
176
     1
 90
       50
176
     1
290
     0
176
     1
 90
       50
176
     1
 62
   256
176
     0
 40
1.0
176
     0
 90
        2
176
     1
  1
strokes_ogs.tif
176
     1
290
     0
176
     1
 40
1.0
176
     1
 40
1.0
176
     1
  0
VISUALSTYLE
  5
784
102
{ACAD_REACTORS
330
77D
102
}
330
77D
100
AcDbVisualStyle
  2
3dWireframe
 70
     5
177
     3
291
     0
 70
    58
 90
        0
176
     1
 90
        2
176
     1
 90
        0
176
     1
 90
        0
176
     1
 40
0.6
176
     1
 40
30.0
176
     1
 62
     7
420
 16777215
176
     1
 90
        1
176
     1
 90
        4
176
     1
 62
     7
176
     1
 62
   257
176
     1
 90
        1
176
     1
 90
        1
176
     1
 40
1.0
176
     1
 90
        0
176
     1
 62
   257
176
     1
 40
1.0
176
     1
 90
        1
176
     1
 90
        6
176
     1
 90
        2
176
     1
 62
     7
176
     1
 90
        5
176
     1
 90
        0
176
     1
 90
        0
176
     1
290
     0
176
     1
 90
        1
176
     1
 40
0.0
176
     1
 90
        0
176
     1
290
     0
176
     1
290
     1
176
     1
290
     1
176
     1
290
     0
176
     1
290
     0
176
     1
290
     0
176
     1
290
     0
176
     1
290
     0
176
     1
290
     0
176
     1
 90
       50
176
     1
 40
0.0
176
     1
 40
1.0
176
     1
 90
        0
176
     1
 62
    18
420
        0
176
     1
 90
       50
176
     1
 90
        3
176
     1
 62
     5
420
      255
176
     1
290
     0
176
     1
 90
       50
176
     1
 90
       50
176
     1
 90
       50
176
     1
290
     0
176
     1
 90
       50
176
     1
 62
   256
176
     0
 40
1.0
176
     0
 90
        2
176
     1
  1
strokes_ogs.tif
176
     1
290
     0
176
     1
 40
1.0
176
     1
 40
1.0
176
     1
  0
VISUALSTYLE
  5
782
102
{ACAD_REACTORS
330
77D
102
}
330
77D
100
AcDbVisualStyle
  2
Basic
 70
     7
177
     3
291
     1
 70
    58
 90
        1
176
     1
 90
        0
176
     1
 90
        1
176
     1
 90
        0
176
     1
 40
0.6
176
     1
 40
30.0
176
     1
 62
     7
420
 16777215
176
     1
 90
        0
176
     1
 90
        4
176
     1
 62
     7
176
     1
 62
   257
176
     1
 90
        1
176
     1
 90
        1
176
     1
 40
1.0
176
     1
 90
        8
176
     1
 62
     7
176
     1
 40
1.0
176
     1
 90
        1
176
     1
 90
        6
176
     1
 90
        2
176
     1
 62
     7
176
     1
 90
        5
176
     1
 90
        0
176
     1
 90
        0
176
     1
290
     0
176
     1
 90
        1
176
     1
 40
0.0
176
     1
 90
        0
176
     1
290
     0
176
     1
290
     1
176
     1
290
     1
176
     1
290
     0
176
     1
290
     0
176
     1
290
     0
176
     1
290
     0
176
     1
290
     0
176
     1
290
     0
176
     1
 90
       50
176
     1
 40
0.0
176
     1
 40
1.0
176
     1
 90
        0
176
     1
 62
    18
420
        0
176
     1
 90
       50
176
     1
 90
        3
176
     1
 62
     5
420
      255
176
     1
290
     0
176
     1
 90
       50
176
     1
 90
       50
176
     1
 90
       50
176
     1
290
     0
176
     1
 90
       50
176
     1
 62
   256
176
     0
 40
1.0
176
     0
 90
        2
176
     1
  1
strokes_ogs.tif
176
     1
290
     0
176
     1
 40
1.0
176
     1
 40
1.0
176
     1
  0
VISUALSTYLE
  5
789
102
{ACAD_REACTORS
330
77D
102
}
330
77D
100
AcDbVisualStyle
  2
Brighten
 70
    12
177
     3
291
     1
 70
    58
 90
        2
176
     1
 90
        2
176
     1
 90
        0
176
     1
 90
        0
176
     1
 40
0.6
176
     1
 40
30.0
176
     1
 62
     7
420
 16777215
176
     1
 90
        1
176
     1
 90
        4
176
     1
 62
     7
176
     1
 62
   257
176
     1
 90
        1
176
     1
 90
        1
176
     1
 40
1.0
176
     1
 90
        8
176
     1
 62
     7
176
     1
 40
1.0
176
     1
 90
        1
176
     1
 90
        6
176
     1
 90
        2
176
     1
 62
     7
176
     1
 90
        5
176
     1
 90
        0
176
     1
 90
        0
176
     1
290
     0
176
     1
 90
        1
176
     1
 40
50.0
176
     1
 90
        0
176
     1
290
     0
176
     1
290
     1
176
     1
290
     1
176
     1
290
     0
176
     1
290
     0
176
     1
290
     0
176
     1
290
     0
176
     1
290
     0
176
     1
290
     0
176
     1
 90
       50
176
     1
 40
0.0
176
     1
 40
1.0
176
     1
 90
        0
176
     1
 62
    18
420
        0
176
     1
 90
       50
176
     1
 90
        3
176
     1
 62
     5
420
      255
176
     1
290
     0
176
     1
 90
       50
176
     1
 90
       50
176
     1
 90
       50
176
     1
290
     0
176
     1
 90
       50
176
     1
 62
   256
176
     0
 40
1.0
176
     0
 90
        2
176
     1
  1
strokes_ogs.tif
176
     1
290
     0
176
     1
 40
1.0
176
     1
 40
1.0
176
     1
  0
VISUALSTYLE
  5
78D
102
{ACAD_REACTORS
330
77D
102
}
330
77D
100
AcDbVisualStyle
  2
ColorChange
 70
    16
177
     3
291
     1
 70
    58
 90
        2
176
     1
 90
        2
176
     1
 90
        3
176
     1
 90
        0
176
     1
 40
0.6
176
     1
 40
30.0
176
     1
 62
     8
420
  8421504
176
     1
 90
        1
176
     1
 90
        4
176
     1
 62
     7
176
     1
 62
   257
176
     1
 90
        1
176
     1
 90
        1
176
     1
 40
1.0
176
     1
 90
        8
176
     1
 62
     8
420
  8421504
176
     1
 40
1.0
176
     1
 90
        1
176
     1
 90
        6
176
     1
 90
        2
176
     1
 62
     7
176
     1
 90
        5
176
     1
 90
        0
176
     1
 90
        0
176
     1
290
     0
176
     1
 90
        1
176
     1
 40
0.0
176
     1
 90
        0
176
     1
290
     0
176
     1
290
     1
176
     1
290
     1
176
     1
290
     0
176
     1
290
     0
176
     1
290
     0
176
     1
290
     0
176
     1
290
     0
176
     1
290
     0
176
     1
 90
       50
176
     1
 40
0.0
176
     1
 40
1.0
176
     1
 90
        0
176
     1
 62
    18
420
        0
176
     1
 90
       50
176
     1
 90
        3
176
     1
 62
     5
420
      255
176
     1
290
     0
176
     1
 90
       50
176
     1
 90
       50
176
     1
 90
       50
176
     1
290
     0
176
     1
 90
       50
176
     1
 62
   256
176
     0
 40
1.0
176
     0
 90
        2
176
     1
  1
strokes_ogs.tif
176
     1
290
     0
176
     1
 40
1.0
176
     1
 40
1.0
176
     1
  0
VISUALSTYLE
  5
786
102
{ACAD_REACTORS
330
77D
102
}
330
77D
100
AcDbVisualStyle
  2
Conceptual
 70
     9
177
     3
291
     0
 70
    58
 90
        3
176
     1
 90
        2
176
     1
 90
        0
176
     1
 90
        0
176
     1
 40
0.6
176
     1
 40
30.0
176
     1
 62
     7
420
 16777215
176
     1
 90
        2
176
     1
 90
        2
176
     1
 62
     7
176
     1
 62
   257
176
     1
 90
        1
176
     1
 90
        1
176
     1
 40
40.0
176
     1
 90
        8
176
     1
 62
     7
176
     1
 40
1.0
176
     1
 90
        1
176
     1
 90
        6
176
     1
 90
        2
176
     1
 62
     7
176
     1
 90
        3
176
     1
 90
        0
176
     1
 90
        0
176
     1
290
     0
176
     1
 90
        1
176
     1
 40
0.0
176
     1
 90
        0
176
     1
290
     0
176
     1
290
     1
176
     1
290
     1
176
     1
290
     0
176
     1
290
     0
176
     1
290
     0
176
     1
290
     0
176
     1
290
     0
176
     1
290
     0
176
     1
 90
       50
176
     1
 40
0.0
176
     1
 40
1.0
176
     1
 90
        0
176
     1
 62
    18
420
        0
176
     1
 90
       50
176
     1
 90
        3
176
     1
 62
     5
420
      255
176
     1
290
     0
176
     1
 90
       50
176
     1
 90
       50
176
     1
 90
       50
176
     1
290
     0
176
     1
 90
       50
176
     1
 62
   256
176
     0
 40
1.0
176
     0
 90
        2
176
     1
  1
strokes_ogs.tif
176
     1
290
     0
176
     1
 40
1.0
176
     1
 40
1.0
176
     1
  0
VISUALSTYLE
  5
788
102
{ACAD_REACTORS
330
77D
102
}
330
77D
100
AcDbVisualStyle
  2
Dim
 70
    11
177
     3
291
     1
 70
    58
 90
        2
176
     1
 90
        2
176
     1
 90
        0
176
     1
 90
        0
176
     1
 40
0.6
176
     1
 40
30.0
176
     1
 62
     7
420
 16777215
176
     1
 90
        1
176
     1
 90
        4
176
     1
 62
     7
176
     1
 62
   257
176
     1
 90
        1
176
     1
 90
        1
176
     1
 40
1.0
176
     1
 90
        8
176
     1
 62
     7
176
     1
 40
1.0
176
     1
 90
        1
176
     1
 90
        6
176
     1
 90
        2
176
     1
 62
     7
176
     1
 90
        5
176
     1
 90
        0
176
     1
 90
        0
176
     1
290
     0
176
     1
 90
        1
176
     1
 40
-50.0
176
     1
 90
        0
176
     1
290
     0
176
     1
290
     1
176
     1
290
     1
176
     1
290
     0
176
     1
290
     0
176
     1
290
     0
176
     1
290
     0
176
     1
290
     0
176
     1
290
     0
176
     1
 90
       50
176
     1
 40
0.0
176
     1
 40
1.0
176
     1
 90
        0
176
     1
 62
    18
420
        0
176
     1
 90
       50
176
     1
 90
        3
176
     1
 62
     5
420
      255
176
     1
290
     0
176
     1
 90
       50
176
     1
 90
       50
176
     1
 90
       50
176
     1
290
     0
176
     1
 90
       50
176
     1
 62
   256
176
     0
 40
1.0
176
     0
 90
        2
176
     1
  1
strokes_ogs.tif
176
     1
290
     0
176
     1
 40
1.0
176
     1
 40
1.0
176
     1
  0
VISUALSTYLE
  5
CB5
102
{ACAD_REACTORS
330
77D
102
}
330
77D
100
AcDbVisualStyle
  2
EdgeColorOff
 70
    22
177
     3
291
     1
 70
    58
 90
        2
176
     0
 90
        2
176
     0
 90
        0
176
     0
 90
        0
176
     0
 40
0.6
176
     0
 40
30.0
176
     0
 62
     7
420
 16777215
176
     0
 90
        1
176
     0
 90
        4
176
     0
 62
     7
176
     0
 62
   257
176
     0
 90
        1
176
     0
 90
        1
176
     0
 40
1.0
176
     0
 90
        8
176
     2
 62
     7
176
     0
 40
1.0
176
     0
 90
        1
176
     0
 90
        6
176
     0
 90
        2
176
     0
 62
     7
176
     0
 90
        5
176
     0
 90
        0
176
     0
 90
        0
176
     0
290
     0
176
     0
 90
        1
176
     0
 40
0.0
176
     0
 90
        0
176
     0
290
     0
176
     0
290
     1
176
     0
290
     1
176
     0
290
     0
176
     0
290
     0
176
     0
290
     0
176
     0
290
     0
176
     0
290
     0
176
     0
290
     0
176
     0
 90
       50
176
     0
 40
0.0
176
     0
 40
1.0
176
     0
 90
        0
176
     0
 62
    18
420
        0
176
     0
 90
       50
176
     0
 90
        3
176
     0
 62
     5
420
      255
176
     0
290
     0
176
     0
 90
       50
176
     0
 90
       50
176
     0
 90
       50
176
     0
290
     0
176
     0
 90
       50
176
     0
 62
   256
176
     0
 40
1.0
176
     0
 90
        2
176
     0
  1
strokes_ogs.tif
176
     0
290
     0
176
     0
 40
1.0
176
     0
 40
1.0
176
     0
  0
VISUALSTYLE
  5
78C
102
{ACAD_REACTORS
330
77D
102
}
330
77D
100
AcDbVisualStyle
  2
Facepattern
 70
    15
177
     3
291
     1
 70
    58
 90
        2
176
     1
 90
        2
176
     1
 90
        0
176
     1
 90
        0
176
     1
 40
0.6
176
     1
 40
30.0
176
     1
 62
     7
420
 16777215
176
     1
 90
        1
176
     1
 90
        4
176
     1
 62
     7
176
     1
 62
   257
176
     1
 90
        1
176
     1
 90
        1
176
     1
 40
1.0
176
     1
 90
        8
176
     1
 62
     7
176
     1
 40
1.0
176
     1
 90
        1
176
     1
 90
        6
176
     1
 90
        2
176
     1
 62
     7
176
     1
 90
        5
176
     1
 90
        0
176
     1
 90
        0
176
     1
290
     0
176
     1
 90
        1
176
     1
 40
0.0
176
     1
 90
        0
176
     1
290
     0
176
     1
290
     1
176
     1
290
     1
176
     1
290
     0
176
     1
290
     0
176
     1
290
     0
176
     1
290
     0
176
     1
290
     0
176
     1
290
     0
176
     1
 90
       50
176
     1
 40
0.0
176
     1
 40
1.0
176
     1
 90
        0
176
     1
 62
    18
420
        0
176
     1
 90
       50
176
     1
 90
        3
176
     1
 62
     5
420
      255
176
     1
290
     0
176
     1
 90
       50
176
     1
 90
       50
176
     1
 90
       50
176
     1
290
     0
176
     1
 90
       50
176
     1
 62
   256
176
     0
 40
1.0
176
     0
 90
        2
176
     1
  1
strokes_ogs.tif
176
     1
290
     0
176
     1
 40
1.0
176
     1
 40
1.0
176
     1
  0
VISUALSTYLE
  5
77E
102
{ACAD_REACTORS
330
77D
102
}
330
77D
100
AcDbVisualStyle
  2
Flat
 70
     0
177
     3
291
     1
 70
    58
 90
        2
176
     1
 90
        1
176
     1
 90
        1
176
     1
 90
        2
176
     1
 40
0.6
176
     1
 40
30.0
176
     1
 62
     7
420
 16777215
176
     1
 90
        0
176
     1
 90
        4
176
     1
 62
     7
176
     1
 62
   257
176
     1
 90
        1
176
     1
 90
        1
176
     1
 40
1.0
176
     1
 90
        8
176
     1
 62
     7
176
     1
 40
1.0
176
     1
 90
        1
176
     1
 90
        6
176
     1
 90
        2
176
     1
 62
     7
176
     1
 90
        5
176
     1
 90
        0
176
     1
 90
        0
176
     1
290
     0
176
     1
 90
       13
176
     1
 40
0.0
176
     1
 90
        0
176
     1
290
     0
176
     1
290
     1
176
     1
290
     1
176
     1
290
     0
176
     1
290
     0
176
     1
290
     0
176
     1
290
     0
176
     1
290
     0
176
     1
290
     0
176
     1
 90
       50
176
     1
 40
0.0
176
     1
 40
1.0
176
     1
 90
        0
176
     1
 62
    18
420
        0
176
     1
 90
       50
176
     1
 90
        3
176
     1
 62
     5
420
      255
176
     1
290
     0
176
     1
 90
       50
176
     1
 90
       50
176
     1
 90
       50
176
     1
290
     0
176
     1
 90
       50
176
     1
 62
   256
176
     0
 40
1.0
176
     0
 90
        2
176
     1
  1
strokes_ogs.tif
176
     1
290
     0
176
     1
 40
1.0
176
     1
 40
1.0
176
     1
  0
VISUALSTYLE
  5
77F
102
{ACAD_REACTORS
330
77D
102
}
330
77D
100
AcDbVisualStyle
  2
FlatWithEdges
 70
     1
177
     3
291
     1
 70
    58
 90
        2
176
     1
 90
        1
176
     1
 90
        1
176
     1
 90
        2
176
     1
 40
0.6
176
     1
 40
30.0
176
     1
 62
     7
420
 16777215
176
     1
 90
        1
176
     1
 90
        4
176
     1
 62
     7
176
     1
 62
   257
176
     1
 90
        1
176
     1
 90
        1
176
     1
 40
1.0
176
     1
 90
        0
176
     1
 62
   257
176
     1
 40
1.0
176
     1
 90
        1
176
     1
 90
        6
176
     1
 90
        2
176
     1
 62
     7
176
     1
 90
        5
176
     1
 90
        0
176
     1
 90
        0
176
     1
290
     0
176
     1
 90
       13
176
     1
 40
0.0
176
     1
 90
        0
176
     1
290
     0
176
     1
290
     1
176
     1
290
     1
176
     1
290
     0
176
     1
290
     0
176
     1
290
     0
176
     1
290
     0
176
     1
290
     0
176
     1
290
     0
176
     1
 90
       50
176
     1
 40
0.0
176
     1
 40
1.0
176
     1
 90
        0
176
     1
 62
    18
420
        0
176
     1
 90
       50
176
     1
 90
        3
176
     1
 62
     5
420
      255
176
     1
290
     0
176
     1
 90
       50
176
     1
 90
       50
176
     1
 90
       50
176
     1
290
     0
176
     1
 90
       50
176
     1
 62
   256
176
     0
 40
1.0
176
     0
 90
        2
176
     1
  1
strokes_ogs.tif
176
     1
290
     0
176
     1
 40
1.0
176
     1
 40
1.0
176
     1
  0
VISUALSTYLE
  5
780
102
{ACAD_REACTORS
330
77D
102
}
330
77D
100
AcDbVisualStyle
  2
Gouraud
 70
     2
177
     3
291
     1
 70
    58
 90
        2
176
     1
 90
        2
176
     1
 90
        1
176
     1
 90
        2
176
     1
 40
0.6
176
     1
 40
30.0
176
     1
 62
     7
420
 16777215
176
     1
 90
        0
176
     1
 90
        4
176
     1
 62
     7
176
     1
 62
   257
176
     1
 90
        1
176
     1
 90
        1
176
     1
 40
1.0
176
     1
 90
        0
176
     1
 62
     7
176
     1
 40
1.0
176
     1
 90
        1
176
     1
 90
        6
176
     1
 90
        2
176
     1
 62
     7
176
     1
 90
        5
176
     1
 90
        0
176
     1
 90
        0
176
     1
290
     0
176
     1
 90
       13
176
     1
 40
0.0
176
     1
 90
        0
176
     1
290
     0
176
     1
290
     1
176
     1
290
     1
176
     1
290
     0
176
     1
290
     0
176
     1
290
     0
176
     1
290
     0
176
     1
290
     0
176
     1
290
     0
176
     1
 90
       50
176
     1
 40
0.0
176
     1
 40
1.0
176
     1
 90
        0
176
     1
 62
    18
420
        0
176
     1
 90
       50
176
     1
 90
        3
176
     1
 62
     5
420
      255
176
     1
290
     0
176
     1
 90
       50
176
     1
 90
       50
176
     1
 90
       50
176
     1
290
     0
176
     1
 90
       50
176
     1
 62
   256
176
     0
 40
1.0
176
     0
 90
        2
176
     1
  1
strokes_ogs.tif
176
     1
290
     0
176
     1
 40
1.0
176
     1
 40
1.0
176
     1
  0
VISUALSTYLE
  5
781
102
{ACAD_REACTORS
330
77D
102
}
330
77D
100
AcDbVisualStyle
  2
GouraudWithEdges
 70
     3
177
     3
291
     1
 70
    58
 90
        2
176
     1
 90
        2
176
     1
 90
        1
176
     1
 90
        2
176
     1
 40
0.6
176
     1
 40
30.0
176
     1
 62
     7
420
 16777215
176
     1
 90
        1
176
     1
 90
        4
176
     1
 62
     7
176
     1
 62
   257
176
     1
 90
        1
176
     1
 90
        1
176
     1
 40
1.0
176
     1
 90
        0
176
     1
 62
   257
176
     1
 40
1.0
176
     1
 90
        1
176
     1
 90
        6
176
     1
 90
        2
176
     1
 62
     7
176
     1
 90
        5
176
     1
 90
        0
176
     1
 90
        0
176
     1
290
     0
176
     1
 90
       13
176
     1
 40
0.0
176
     1
 90
        0
176
     1
290
     0
176
     1
290
     1
176
     1
290
     1
176
     1
290
     0
176
     1
290
     0
176
     1
290
     0
176
     1
290
     0
176
     1
290
     0
176
     1
290
     0
176
     1
 90
       50
176
     1
 40
0.0
176
     1
 40
1.0
176
     1
 90
        0
176
     1
 62
    18
420
        0
176
     1
 90
       50
176
     1
 90
        3
176
     1
 62
     5
420
      255
176
     1
290
     0
176
     1
 90
       50
176
     1
 90
       50
176
     1
 90
       50
176
     1
290
     0
176
     1
 90
       50
176
     1
 62
   256
176
     0
 40
1.0
176
     0
 90
        2
176
     1
  1
strokes_ogs.tif
176
     1
290
     0
176
     1
 40
1.0
176
     1
 40
1.0
176
     1
  0
VISUALSTYLE
  5
CAD
102
{ACAD_REACTORS
330
77D
102
}
330
77D
100
AcDbVisualStyle
  2
Hidden
 70
     6
177
     3
291
     0
 70
    58
 90
        1
176
     1
 90
        2
176
     1
 90
        2
176
     1
 90
        0
176
     1
 40
0.6
176
     1
 40
30.0
176
     1
 62
     7
420
 16777215
176
     1
 90
        2
176
     1
 90
        2
176
     1
 62
     7
176
     1
 62
   257
176
     1
 90
        2
176
     1
 90
        1
176
     1
 40
40.0
176
     1
 90
        0
176
     1
 62
   257
176
     1
 40
1.0
176
     1
 90
        1
176
     1
 90
        6
176
     1
 90
        2
176
     1
 62
     7
176
     1
 90
        3
176
     1
 90
        0
176
     1
 90
        0
176
     1
290
     0
176
     1
 90
        1
176
     1
 40
0.0
176
     1
 90
        0
176
     1
290
     0
176
     1
290
     1
176
     1
290
     1
176
     1
290
     0
176
     1
290
     0
176
     1
290
     0
176
     1
290
     0
176
     1
290
     0
176
     1
290
     0
176
     1
 90
       50
176
     1
 40
0.0
176
     1
 40
1.0
176
     1
 90
        0
176
     1
 62
    18
420
        0
176
     1
 90
       50
176
     1
 90
        3
176
     1
 62
     5
420
      255
176
     1
290
     0
176
     1
 90
       50
176
     1
 90
       50
176
     1
 90
       50
176
     1
290
     0
176
     1
 90
       50
176
     1
 62
   256
176
     0
 40
1.0
176
     0
 90
        2
176
     1
  1
strokes_ogs.tif
176
     1
290
     0
176
     1
 40
1.0
176
     1
 40
1.0
176
     1
  0
VISUALSTYLE
  5
CB3
102
{ACAD_REACTORS
330
77D
102
}
330
77D
100
AcDbVisualStyle
  2
JitterOff
 70
    20
177
     3
291
     1
 70
    58
 90
        2
176
     0
 90
        2
176
     0
 90
        0
176
     0
 90
        0
176
     0
 40
0.6
176
     0
 40
30.0
176
     0
 62
     7
420
 16777215
176
     0
 90
        1
176
     0
 90
        4
176
     0
 62
     7
176
     0
 62
   257
176
     0
 90
        1
176
     0
 90
        1
176
     0
 40
1.0
176
     0
 90
       10
176
     2
 62
     7
176
     0
 40
1.0
176
     0
 90
        1
176
     0
 90
        6
176
     0
 90
        2
176
     0
 62
     7
176
     0
 90
        5
176
     0
 90
        0
176
     0
 90
        0
176
     0
290
     0
176
     0
 90
        1
176
     0
 40
0.0
176
     0
 90
        0
176
     0
290
     0
176
     0
290
     1
176
     0
290
     1
176
     0
290
     0
176
     0
290
     0
176
     0
290
     0
176
     0
290
     0
176
     0
290
     0
176
     0
290
     0
176
     0
 90
       50
176
     0
 40
0.0
176
     0
 40
1.0
176
     0
 90
        0
176
     0
 62
    18
420
        0
176
     0
 90
       50
176
     0
 90
        3
176
     0
 62
     5
420
      255
176
     0
290
     0
176
     0
 90
       50
176
     0
 90
       50
176
     0
 90
       50
176
     0
290
     0
176
     0
 90
       50
176
     0
 62
   256
176
     0
 40
1.0
176
     0
 90
        2
176
     0
  1
strokes_ogs.tif
176
     0
290
     0
176
     0
 40
1.0
176
     0
 40
1.0
176
     0
  0
VISUALSTYLE
  5
78B
102
{ACAD_REACTORS
330
77D
102
}
330
77D
100
AcDbVisualStyle
  2
Linepattern
 70
    14
177
     3
291
     1
 70
    58
 90
        2
176
     1
 90
        2
176
     1
 90
        0
176
     1
 90
        0
176
     1
 40
0.6
176
     1
 40
30.0
176
     1
 62
     7
420
 16777215
176
     1
 90
        1
176
     1
 90
        4
176
     1
 62
     7
176
     1
 62
   257
176
     1
 90
        7
176
     1
 90
        7
176
     1
 40
1.0
176
     1
 90
        8
176
     1
 62
     7
176
     1
 40
1.0
176
     1
 90
        1
176
     1
 90
        6
176
     1
 90
        2
176
     1
 62
     7
176
     1
 90
        5
176
     1
 90
        0
176
     1
 90
        0
176
     1
290
     0
176
     1
 90
        1
176
     1
 40
0.0
176
     1
 90
        0
176
     1
290
     0
176
     1
290
     1
176
     1
290
     1
176
     1
290
     0
176
     1
290
     0
176
     1
290
     0
176
     1
290
     0
176
     1
290
     0
176
     1
290
     0
176
     1
 90
       50
176
     1
 40
0.0
176
     1
 40
1.0
176
     1
 90
        0
176
     1
 62
    18
420
        0
176
     1
 90
       50
176
     1
 90
        3
176
     1
 62
     5
420
      255
176
     1
290
     0
176
     1
 90
       50
176
     1
 90
       50
176
     1
 90
       50
176
     1
290
     0
176
     1
 90
       50
176
     1
 62
   256
176
     0
 40
1.0
176
     0
 90
        2
176
     1
  1
strokes_ogs.tif
176
     1
290
     0
176
     1
 40
1.0
176
     1
 40
1.0
176
     1
  0
VISUALSTYLE
  5
CB4
102
{ACAD_REACTORS
330
77D
102
}
330
77D
100
AcDbVisualStyle
  2
OverhangOff
 70
    21
177
     3
291
     1
 70
    58
 90
        2
176
     0
 90
        2
176
     0
 90
        0
176
     0
 90
        0
176
     0
 40
0.6
176
     0
 40
30.0
176
     0
 62
     7
420
 16777215
176
     0
 90
        1
176
     0
 90
        4
176
     0
 62
     7
176
     0
 62
   257
176
     0
 90
        1
176
     0
 90
        1
176
     0
 40
1.0
176
     0
 90
        9
176
     2
 62
     7
176
     0
 40
1.0
176
     0
 90
        1
176
     0
 90
        6
176
     0
 90
        2
176
     0
 62
     7
176
     0
 90
        5
176
     0
 90
        0
176
     0
 90
        0
176
     0
290
     0
176
     0
 90
        1
176
     0
 40
0.0
176
     0
 90
        0
176
     0
290
     0
176
     0
290
     1
176
     0
290
     1
176
     0
290
     0
176
     0
290
     0
176
     0
290
     0
176
     0
290
     0
176
     0
290
     0
176
     0
290
     0
176
     0
 90
       50
176
     0
 40
0.0
176
     0
 40
1.0
176
     0
 90
        0
176
     0
 62
    18
420
        0
176
     0
 90
       50
176
     0
 90
        3
176
     0
 62
     5
420
      255
176
     0
290
     0
176
     0
 90
       50
176
     0
 90
       50
176
     0
 90
       50
176
     0
290
     0
176
     0
 90
       50
176
     0
 62
   256
176
     0
 40
1.0
176
     0
 90
        2
176
     0
  1
strokes_ogs.tif
176
     0
290
     0
176
     0
 40
1.0
176
     0
 40
1.0
176
     0
  0
VISUALSTYLE
  5
787
102
{ACAD_REACTORS
330
77D
102
}
330
77D
100
AcDbVisualStyle
  2
Realistic
 70
     8
177
     3
291
     0
 70
    58
 90
        2
176
     1
 90
        2
176
     1
 90
        0
176
     1
 90
        0
176
     1
 40
0.6
176
     1
 40
30.0
176
     1
 62
     7
420
 16777215
176
     1
 90
        1
176
     1
 90
        0
176
     1
 62
     7
176
     1
 62
   257
176
     1
 90
        1
176
     1
 90
        1
176
     1
 40
1.0
176
     1
 90
        8
176
     1
 62
     8
420
  7895160
176
     1
 40
1.0
176
     1
 90
        1
176
     1
 90
        6
176
     1
 90
        2
176
     1
 62
     7
176
     1
 90
        5
176
     1
 90
        0
176
     1
 90
        0
176
     1
290
     0
176
     1
 90
       13
176
     1
 40
0.0
176
     1
 90
        0
176
     1
290
     0
176
     1
290
     1
176
     1
290
     1
176
     1
290
     0
176
     1
290
     0
176
     1
290
     0
176
     1
290
     0
176
     1
290
     0
176
     1
290
     0
176
     1
 90
       50
176
     1
 40
0.0
176
     1
 40
1.0
176
     1
 90
        0
176
     1
 62
    18
420
        0
176
     1
 90
       50
176
     1
 90
        3
176
     1
 62
     5
420
      255
176
     1
290
     0
176
     1
 90
       50
176
     1
 90
       50
176
     1
 90
       50
176
     1
290
     0
176
     1
 90
       50
176
     1
 62
   256
176
     0
 40
1.0
176
     0
 90
        2
176
     1
  1
strokes_ogs.tif
176
     1
290
     0
176
     1
 40
1.0
176
     1
 40
1.0
176
     1
  0
VISUALSTYLE
  5
CB2
102
{ACAD_REACTORS
330
77D
102
}
330
77D
100
AcDbVisualStyle
  2
Shaded
 70
    27
177
     3
291
     0
 70
    58
 90
        2
176
     1
 90
        2
176
     1
 90
        1
176
     1
 90
        2
176
     1
 40
0.6
176
     1
 40
30.0
176
     1
 62
     7
420
 16777215
176
     1
 90
        0
176
     1
 90
        4
176
     1
 62
     7
176
     1
 62
   257
176
     1
 90
        1
176
     1
 90
        1
176
     1
 40
1.0
176
     1
 90
        8
176
     1
 62
   257
176
     1
 40
1.0
176
     1
 90
        1
176
     1
 90
        6
176
     1
 90
        2
176
     1
 62
     8
420
  7895160
176
     1
 90
        3
176
     1
 90
        0
176
     1
 90
        0
176
     1
290
     0
176
     1
 90
        5
176
     1
 40
0.0
176
     1
 90
        0
176
     1
290
     0
176
     1
290
     1
176
     1
290
     1
176
     1
290
     0
176
     1
290
     0
176
     1
290
     0
176
     1
290
     0
176
     1
290
     0
176
     1
290
     0
176
     1
 90
       50
176
     1
 40
0.0
176
     1
 40
1.0
176
     1
 90
        0
176
     1
 62
    18
420
        0
176
     1
 90
       50
176
     1
 90
        3
176
     1
 62
     5
420
      255
176
     1
290
     0
176
     1
 90
       50
176
     1
 90
       50
176
     1
 90
       50
176
     1
290
     0
176
     1
 90
       50
176
     1
 62
   256
176
     0
 40
1.0
176
     0
 90
        2
176
     1
  1
strokes_ogs.tif
176
     1
290
     0
176
     1
 40
1.0
176
     1
 40
1.0
176
     1
  0
VISUALSTYLE
  5
CB1
102
{ACAD_REACTORS
330
77D
102
}
330
77D
100
AcDbVisualStyle
  2
Shaded with edges
 70
    26
177
     3
291
     0
 70
    58
 90
        2
176
     1
 90
        2
176
     1
 90
        1
176
     1
 90
        2
176
     1
 40
0.6
176
     1
 40
30.0
176
     1
 62
     7
420
 16777215
176
     1
 90
        1
176
     1
 90
       10
176
     1
 62
     7
176
     1
 62
   257
176
     1
 90
        2
176
     1
 90
        1
176
     1
 40
1.0
176
     1
 90
        8
176
     1
 62
   257
176
     1
 40
1.0
176
     1
 90
        1
176
     1
 90
        6
176
     1
 90
        2
176
     1
 62
     7
176
     1
 90
        3
176
     1
 90
        0
176
     1
 90
        0
176
     1
290
     0
176
     1
 90
        5
176
     1
 40
0.0
176
     1
 90
        0
176
     1
290
     0
176
     1
290
     1
176
     1
290
     1
176
     1
290
     0
176
     1
290
     0
176
     1
290
     0
176
     1
290
     0
176
     1
290
     0
176
     1
290
     0
176
     1
 90
       50
176
     1
 40
0.0
176
     1
 40
1.0
176
     1
 90
        0
176
     1
 62
    18
420
        0
176
     1
 90
       50
176
     1
 90
        3
176
     1
 62
     5
420
      255
176
     1
290
     0
176
     1
 90
       50
176
     1
 90
       50
176
     1
 90
       50
176
     1
290
     0
176
     1
 90
       50
176
     1
 62
   256
176
     0
 40
1.0
176
     0
 90
        2
176
     1
  1
strokes_ogs.tif
176
     1
290
     0
176
     1
 40
1.0
176
     1
 40
1.0
176
     1
  0
VISUALSTYLE
  5
CAE
102
{ACAD_REACTORS
330
77D
102
}
330
77D
100
AcDbVisualStyle
  2
Shades of Gray
 70
    23
177
     3
291
     0
 70
    58
 90
        2
176
     1
 90
        2
176
     1
 90
        3
176
     1
 90
        0
176
     1
 40
0.6
176
     1
 40
30.0
176
     1
 62
     7
420
 16777215
176
     1
 90
        2
176
     1
 90
        2
176
     1
 62
     7
176
     1
 62
     7
176
     1
 90
        1
176
     1
 90
        1
176
     1
 40
40.0
176
     1
 90
        8
176
     1
 62
     7
176
     1
 40
1.0
176
     1
 90
        1
176
     1
 90
        6
176
     1
 90
        2
176
     1
 62
     7
176
     1
 90
        3
176
     1
 90
        0
176
     1
 90
        0
176
     1
290
     0
176
     1
 90
        1
176
     1
 40
0.0
176
     1
 90
        0
176
     1
290
     0
176
     1
290
     1
176
     1
290
     1
176
     1
290
     0
176
     1
290
     0
176
     1
290
     0
176
     1
290
     0
176
     1
290
     0
176
     1
290
     0
176
     1
 90
       50
176
     1
 40
0.0
176
     1
 40
1.0
176
     1
 90
        0
176
     1
 62
    18
420
        0
176
     1
 90
       50
176
     1
 90
        3
176
     1
 62
     5
420
      255
176
     1
290
     0
176
     1
 90
       50
176
     1
 90
       50
176
     1
 90
       50
176
     1
290
     0
176
     1
 90
       50
176
     1
 62
   256
176
     0
 40
1.0
176
     0
 90
        2
176
     1
  1
strokes_ogs.tif
176
     1
290
     0
176
     1
 40
1.0
176
     1
 40
1.0
176
     1
  0
VISUALSTYLE
  5
CAF
102
{ACAD_REACTORS
330
77D
102
}
330
77D
100
AcDbVisualStyle
  2
Sketchy
 70
    24
177
     3
291
     0
 70
    58
 90
        1
176
     1
 90
        2
176
     1
 90
        2
176
     1
 90
        0
176
     1
 40
0.6
176
     1
 40
30.0
176
     1
 62
     7
420
 16777215
176
     1
 90
        2
176
     1
 90
        2
176
     1
 62
     7
176
     1
 62
     7
176
     1
 90
        1
176
     1
 90
        1
176
     1
 40
40.0
176
     1
 90
       11
176
     1
 62
     7
176
     1
 40
1.0
176
     1
 90
        1
176
     1
 90
        6
176
     1
 90
        2
176
     1
 62
     7
176
     1
 90
        6
176
     1
 90
        0
176
     1
 90
        0
176
     1
290
     0
176
     1
 90
        1
176
     1
 40
0.0
176
     1
 90
        0
176
     1
290
     0
176
     1
290
     1
176
     1
290
     1
176
     1
290
     0
176
     1
290
     0
176
     1
290
     0
176
     1
290
     0
176
     1
290
     0
176
     1
290
     0
176
     1
 90
       50
176
     1
 40
0.0
176
     1
 40
1.0
176
     1
 90
        0
176
     1
 62
    18
420
        0
176
     1
 90
       50
176
     1
 90
        3
176
     1
 62
     5
420
      255
176
     1
290
     0
176
     1
 90
       50
176
     1
 90
       50
176
     1
 90
       50
176
     1
290
     0
176
     1
 90
       50
176
     1
 62
   256
176
     0
 40
1.0
176
     0
 90
        2
176
     1
  1
strokes_ogs.tif
176
     1
290
     0
176
     1
 40
1.0
176
     1
 40
1.0
176
     1
  0
VISUALSTYLE
  5
78A
102
{ACAD_REACTORS
330
77D
102
}
330
77D
100
AcDbVisualStyle
  2
Thicken
 70
    13
177
     3
291
     1
 70
    58
 90
        2
176
     1
 90
        2
176
     1
 90
        0
176
     1
 90
        0
176
     1
 40
0.6
176
     1
 40
30.0
176
     1
 62
     7
420
 16777215
176
     1
 90
        1
176
     1
 90
        4
176
     1
 62
     7
176
     1
 62
   257
176
     1
 90
        1
176
     1
 90
        1
176
     1
 40
1.0
176
     1
 90
       12
176
     1
 62
     7
176
     1
 40
1.0
176
     1
 90
        1
176
     1
 90
        6
176
     1
 90
        2
176
     1
 62
     7
176
     1
 90
        5
176
     1
 90
        0
176
     1
 90
        0
176
     1
290
     0
176
     1
 90
        1
176
     1
 40
0.0
176
     1
 90
        0
176
     1
290
     0
176
     1
290
     1
176
     1
290
     1
176
     1
290
     0
176
     1
290
     0
176
     1
290
     0
176
     1
290
     0
176
     1
290
     0
176
     1
290
     0
176
     1
 90
       50
176
     1
 40
0.0
176
     1
 40
1.0
176
     1
 90
        0
176
     1
 62
    18
420
        0
176
     1
 90
       50
176
     1
 90
        3
176
     1
 62
     5
420
      255
176
     1
290
     0
176
     1
 90
       50
176
     1
 90
       50
176
     1
 90
       50
176
     1
290
     0
176
     1
 90
       50
176
     1
 62
   256
176
     0
 40
1.0
176
     0
 90
        2
176
     1
  1
strokes_ogs.tif
176
     1
290
     0
176
     1
 40
1.0
176
     1
 40
1.0
176
     1
  0
VISUALSTYLE
  5
CAC
102
{ACAD_REACTORS
330
77D
102
}
330
77D
100
AcDbVisualStyle
  2
Wireframe
 70
     5
177
     3
291
     0
 70
    58
 90
        0
176
     1
 90
        2
176
     1
 90
        0
176
     1
 90
        0
176
     1
 40
0.6
176
     1
 40
30.0
176
     1
 62
     7
420
 16777215
176
     1
 90
        1
176
     1
 90
        4
176
     1
 62
     7
176
     1
 62
   257
176
     1
 90
        1
176
     1
 90
        1
176
     1
 40
1.0
176
     1
 90
        0
176
     1
 62
   257
176
     1
 40
1.0
176
     1
 90
        1
176
     1
 90
        6
176
     1
 90
        2
176
     1
 62
     7
176
     1
 90
        3
176
     1
 90
        0
176
     1
 90
        0
176
     1
290
     0
176
     1
 90
        1
176
     1
 40
0.0
176
     1
 90
        0
176
     1
290
     0
176
     1
290
     1
176
     1
290
     1
176
     1
290
     0
176
     1
290
     0
176
     1
290
     0
176
     1
290
     0
176
     1
290
     0
176
     1
290
     0
176
     1
 90
       50
176
     1
 40
0.0
176
     1
 40
1.0
176
     1
 90
        0
176
     1
 62
    18
420
        0
176
     1
 90
       50
176
     1
 90
        3
176
     1
 62
     5
420
      255
176
     1
290
     0
176
     1
 90
       50
176
     1
 90
       50
176
     1
 90
       50
176
     1
290
     0
176
     1
 90
       50
176
     1
 62
   256
176
     0
 40
1.0
176
     0
 90
        2
176
     1
  1
strokes_ogs.tif
176
     1
290
     0
176
     1
 40
1.0
176
     1
 40
1.0
176
     1
  0
VISUALSTYLE
  5
CB0
102
{ACAD_REACTORS
330
77D
102
}
330
77D
100
AcDbVisualStyle
  2
X-Ray
 70
    25
177
     3
291
     0
 70
    58
 90
        2
176
     1
 90
        2
176
     1
 90
        1
176
     1
 90
        1
176
     1
 40
0.5
176
     1
 40
30.0
176
     1
 62
     7
420
 16777215
176
     1
 90
        1
176
     1
 90
        0
176
     1
 62
     7
176
     1
 62
   257
176
     1
 90
        1
176
     1
 90
        1
176
     1
 40
1.0
176
     1
 90
        8
176
     1
 62
     7
176
     1
 40
1.0
176
     1
 90
        1
176
     1
 90
        6
176
     1
 90
        2
176
     1
 62
     7
176
     1
 90
        3
176
     1
 90
        0
176
     1
 90
        0
176
     1
290
     0
176
     1
 90
       13
176
     1
 40
0.0
176
     1
 90
        0
176
     1
290
     0
176
     1
290
     1
176
     1
290
     1
176
     1
290
     0
176
     1
290
     0
176
     1
290
     0
176
     1
290
     0
176
     1
290
     0
176
     1
290
     0
176
     1
 90
       50
176
     1
 40
0.0
176
     1
 40
1.0
176
     1
 90
        0
176
     1
 62
    18
420
        0
176
     1
 90
       50
176
     1
 90
        3
176
     1
 62
     5
420
      255
176
     1
290
     0
176
     1
 90
       50
176
     1
 90
       50
176
     1
 90
       50
176
     1
290
     0
176
     1
 90
       50
176
     1
 62
   256
176
     0
 40
1.0
176
     0
 90
        2
176
     1
  1
strokes_ogs.tif
176
     1
290
     0
176
     1
 40
1.0
176
     1
 40
1.0
176
     1
  0
DICTIONARYVAR
  5
841
102
{ACAD_REACTORS
330
66
102
}
330
66
100
DictionaryVariables
280
     0
  1
1:1
  0
DICTIONARYVAR
  5
83F
102
{ACAD_REACTORS
330
66
102
}
330
66
100
DictionaryVariables
280
     0
  1
STANDARD
  0
DICTIONARYVAR
  5
83E
102
{ACAD_REACTORS
330
66
102
}
330
66
100
DictionaryVariables
280
     0
  1
STANDARD
  0
DICTIONARYVAR
  5
CFB
102
{ACAD_REACTORS
330
66
102
}
330
66
100
DictionaryVariables
280
     0
  1
Imperial24
  0
DICTIONARYVAR
  5
CFC
102
{ACAD_REACTORS
330
66
102
}
330
66
100
DictionaryVariables
280
     0
  1
Imperial24
  0
DICTIONARYVAR
  5
67
102
{ACAD_REACTORS
330
66
102
}
330
66
100
DictionaryVariables
280
     0
  1
2
  0
DICTIONARYVAR
  5
6B
102
{ACAD_REACTORS
330
66
102
}
330
66
100
DictionaryVariables
280
     0
  1
1
  0
DICTIONARYVAR
  5
CFD
102
{ACAD_REACTORS
330
66
102
}
330
66
100
DictionaryVariables
280
     0
  1
1
  0
DICTIONARYVAR
  5
CFE
102
{ACAD_REACTORS
330
66
102
}
330
66
100
DictionaryVariables
280
     0
  1
15
  0
DICTIONARYVAR
  5
842
102
{ACAD_REACTORS
330
66
102
}
330
66
100
DictionaryVariables
280
     0
  1
0
  0
DICTIONARYVAR
  5
840
102
{ACAD_REACTORS
330
66
102
}
330
66
100
DictionaryVariables
280
     0
  1
0
  0
DICTIONARY
  5
CF8
330
CB9
100
AcDbDictionary
280
     1
281
     1
  3
ACAD_XREC_ROUNDTRIP
360
D1D
  0
DICTIONARY
  5
85F
330
59
100
AcDbDictionary
280
     1
281
     1
  0
DICTIONARY
  5
830
330
5E
100
AcDbDictionary
280
     1
281
     1
  0
DICTIONARY
  5
76E
330
76D
100
AcDbDictionary
280
     1
281
     1
  3
BUMPTILE
360
770
  3
DIFFUSETILE
360
76F
  3
OPACITYTILE
360
773
  3
REFLECTIONTILE
360
772
  3
REFRACTIONTILE
360
774
  3
SPECULARTILE
360
771
  0
DICTIONARY
  5
766
330
765
100
AcDbDictionary
280
     1
281
     1
  3
BUMPTILE
360
768
  3
DIFFUSETILE
360
767
  3
OPACITYTILE
360
76B
  3
REFLECTIONTILE
360
76A
  3
REFRACTIONTILE
360
76C
  3
SPECULARTILE
360
769
  0
DICTIONARY
  5
776
330
775
100
AcDbDictionary
280
     1
281
     1
  3
BUMPTILE
360
778
  3
DIFFUSETILE
360
777
  3
OPACITYTILE
360
77B
  3
REFLECTIONTILE
360
77A
  3
REFRACTIONTILE
360
77C
  3
SPECULARTILE
360
779
  0
DICTIONARY
  5
CF6
330
CB7
100
AcDbDictionary
280
     1
281
     1
  3
ACAD_XREC_ROUNDTRIP
360
D1C
  0
DICTIONARY
  5
83B
330
78F
100
AcDbDictionary
280
     1
281
     1
  3
ACAD_ROUNDTRIP_2008_TABLESTYLE_CELLSTYLEMAP
360
D1B
  0
XRECORD
  5
D1D
102
{ACAD_REACTORS
330
CF8
102
}
330
CF8
100
AcDbXrecord
280
     1
102
DISPLAYNAME
  1
Imperial24
102
FLAGS
 90
        0
  0
XRECORD
  5
770
102
{ACAD_REACTORS
330
76E
102
}
330
76E
100
AcDbXrecord
280
     1
270
     1
271
     1
  0
XRECORD
  5
76F
102
{ACAD_REACTORS
330
76E
102
}
330
76E
100
AcDbXrecord
280
     1
270
     1
271
     1
  0
XRECORD
  5
773
102
{ACAD_REACTORS
330
76E
102
}
330
76E
100
AcDbXrecord
280
     1
270
     1
271
     1
  0
XRECORD
  5
772
102
{ACAD_REACTORS
330
76E
102
}
330
76E
100
AcDbXrecord
280
     1
270
     1
271
     1
  0
XRECORD
  5
774
102
{ACAD_REACTORS
330
76E
102
}
330
76E
100
AcDbXrecord
280
     1
270
     1
271
     1
  0
XRECORD
  5
771
102
{ACAD_REACTORS
330
76E
102
}
330
76E
100
AcDbXrecord
280
     1
270
     1
271
     1
  0
XRECORD
  5
768
102
{ACAD_REACTORS
330
766
102
}
330
766
100
AcDbXrecord
280
     1
270
     1
271
     1
  0
XRECORD
  5
767
102
{ACAD_REACTORS
330
766
102
}
330
766
100
AcDbXrecord
280
     1
270
     1
271
     1
  0
XRECORD
  5
76B
102
{ACAD_REACTORS
330
766
102
}
330
766
100
AcDbXrecord
280
     1
270
     1
271
     1
  0
XRECORD
  5
76A
102
{ACAD_REACTORS
330
766
102
}
330
766
100
AcDbXrecord
280
     1
270
     1
271
     1
  0
XRECORD
  5
76C
102
{ACAD_REACTORS
330
766
102
}
330
766
100
AcDbXrecord
280
     1
270
     1
271
     1
  0
XRECORD
  5
769
102
{ACAD_REACTORS
330
766
102
}
330
766
100
AcDbXrecord
280
     1
270
     1
271
     1
  0
XRECORD
  5
778
102
{ACAD_REACTORS
330
776
102
}
330
776
100
AcDbXrecord
280
     1
270
     1
271
     1
  0
XRECORD
  5
777
102
{ACAD_REACTORS
330
776
102
}
330
776
100
AcDbXrecord
280
     1
270
     1
271
     1
  0
XRECORD
  5
77B
102
{ACAD_REACTORS
330
776
102
}
330
776
100
AcDbXrecord
280
     1
270
     1
271
     1
  0
XRECORD
  5
77A
102
{ACAD_REACTORS
330
776
102
}
330
776
100
AcDbXrecord
280
     1
270
     1
271
     1
  0
XRECORD
  5
77C
102
{ACAD_REACTORS
330
776
102
}
330
776
100
AcDbXrecord
280
     1
270
     1
271
     1
  0
XRECORD
  5
779
102
{ACAD_REACTORS
330
776
102
}
330
776
100
AcDbXrecord
280
     1
270
     1
271
     1
  0
XRECORD
  5
D1C
102
{ACAD_REACTORS
330
CF6
102
}
330
CF6
100
AcDbXrecord
280
     1
102
DISPLAYNAME
  1
Imperial24
102
FLAGS
 90
        0
  0
CELLSTYLEMAP
  5
D1B
102
{ACAD_REACTORS
330
83B
102
}
330
83B
100
AcDbCellStyleMap
 90
        3
300
CELLSTYLE
  1
TABLEFORMAT_BEGIN
 90
        5
170
     1
 91
        0
 92
    32768
 62
   257
 93
        1
300
CONTENTFORMAT
  1
CONTENTFORMAT_BEGIN
 90
        0
 91
        0
 92
      512
 93
        0
300

 40
0.0
140
1.0
 94
        5
 62
     0
340
11
144
0.25
309
CONTENTFORMAT_END
171
     0
 94
        0
309
TABLEFORMAT_END
  1
CELLSTYLE_BEGIN
 90
        1
 91
        1
300
_TITLE
309
CELLSTYLE_END
300
CELLSTYLE
  1
TABLEFORMAT_BEGIN
 90
        5
170
     1
 91
        0
 92
        0
 62
   257
 93
        1
300
CONTENTFORMAT
  1
CONTENTFORMAT_BEGIN
 90
        0
 91
        0
 92
      512
 93
        0
300

 40
0.0
140
1.0
 94
        5
 62
     0
340
11
144
0.18
309
CONTENTFORMAT_END
171
     0
 94
        0
309
TABLEFORMAT_END
  1
CELLSTYLE_BEGIN
 90
        2
 91
        1
300
_HEADER
309
CELLSTYLE_END
300
CELLSTYLE
  1
TABLEFORMAT_BEGIN
 90
        5
170
     1
 91
        0
 92
        0
 62
   257
 93
        1
300
CONTENTFORMAT
  1
CONTENTFORMAT_BEGIN
 90
        0
 91
        0
 92
      512
 93
        0
300

 40
0.0
140
1.0
 94
        2
 62
     0
340
11
144
0.18
309
CONTENTFORMAT_END
171
     0
 94
        0
309
TABLEFORMAT_END
  1
CELLSTYLE_BEGIN
 90
        3
 91
        2
300
_DATA
309
CELLSTYLE_END
  0
ENDSEC
  0
SECTION
  2
ACDSDATA
 70
     2
 71
     6
  0
ACDSSCHEMA
 90
        0
  1
AcDb_Thumbnail_Schema
  2
AcDbDs::ID
280
    10
 91
        8
  2
Thumbnail_Data
280
    15
 91
        0
101
ACDSRECORD
 95
        0
 90
        1
  2
AcDbDs::TreatedAsObjectData
280
     1
291
     1
101
ACDSRECORD
 95
        0
 90
        2
  2
AcDbDs::Legacy
280
     1
291
     1
101
ACDSRECORD
  1
AcDbDs::ID
 90
        3
  2
AcDs:Indexable
280
     1
291
     1
101
ACDSRECORD
  1
AcDbDs::ID
 90
        4
  2
AcDbDs::HandleAttribute
280
     7
282
     1
  0
ACDSSCHEMA
 90
        1
  1
AcDbDs::TreatedAsObjectDataSchema
  2
AcDbDs::TreatedAsObjectData
280
     1
 91
        0
  0
ACDSSCHEMA
 90
        2
  1
AcDbDs::LegacySchema
  2
AcDbDs::Legacy
280
     1
 91
        0
  0
ACDSSCHEMA
 90
        3
  1
AcDbDs::IndexedPropertySchema
  2
AcDs:Indexable
280
     1
 91
        0
  0
ACDSSCHEMA
 90
        4
  1
AcDbDs::HandleAttributeSchema
  2
AcDbDs::HandleAttribute
280
     7
 91
        1
284
     1
  0
ACDSRECORD
 90
        0
  2
AcDbDs::ID
280
    10
320
59
  2
Thumbnail_Data
280
    15
 94
     1058
310
89504E470D0A1A0A0000000D4948445200000100000000C508030000008CFEDCE700000300504C5445FFFFFF000000C8C8C80000000000000000000000000000000000000000000000000000330000660000990000CC0000FF0033000033330033660033990033CC0033FF0066000066330066660066990066CC0066FF0099
310
000099330099660099990099CC0099FF00CC0000CC3300CC6600CC9900CCCC00CCFF00FF0000FF3300FF6600FF9900FFCC00FFFF3300003300333300663300993300CC3300FF3333003333333333663333993333CC3333FF3366003366333366663366993366CC3366FF3399003399333399663399993399CC3399FF33CC00
310
33CC3333CC6633CC9933CCCC33CCFF33FF0033FF3333FF6633FF9933FFCC33FFFF6600006600336600666600996600CC6600FF6633006633336633666633996633CC6633FF6666006666336666666666996666CC6666FF6699006699336699666699996699CC6699FF66CC0066CC3366CC6666CC9966CCCC66CCFF66FF0066
310
FF3366FF6666FF9966FFCC66FFFF9900009900339900669900999900CC9900FF9933009933339933669933999933CC9933FF9966009966339966669966999966CC9966FF9999009999339999669999999999CC9999FF99CC0099CC3399CC6699CC9999CCCC99CCFF99FF0099FF3399FF6699FF9999FFCC99FFFFCC0000CC00
310
33CC0066CC0099CC00CCCC00FFCC3300CC3333CC3366CC3399CC33CCCC33FFCC6600CC6633CC6666CC6699CC66CCCC66FFCC9900CC9933CC9966CC9999CC99CCCC99FFCCCC00CCCC33CCCC66CCCC99CCCCCCCCCCFFCCFF00CCFF33CCFF66CCFF99CCFFCCCCFFFFFF0000FF0033FF0066FF0099FF00CCFF00FFFF3300FF3333
310
FF3366FF3399FF33CCFF33FFFF6600FF6633FF6666FF6699FF66CCFF66FFFF9900FF9933FF9966FF9999FF99CCFF99FFFFCC00FFCC33FFCC66FFCC99FFCCCCFFCCFFFFFF00FFFF33FFFF66FFFF99FFFFCCFFFFFF0000000D0D0D1A1A1A2828283535354343435050505D5D5D6B6B6B787878868686939393A1A1A1AEAEAEBB
310
BBBBC9C9C9D6D6D6E4E4E4F1F1F1FFFFFF000000000000000000000000000000000000000000000000000000000000B0E2D235000000DD4944415478DAEDD1410D00300C03B1F0873924954A61AF463E08BE449224499224499224697B05FD01143C0400000000000000000000000000000000000000000000000000000000
310
00000000000000000000000000000000000000000000000000000000000000000000000000000000000000000000000000000000000000000000000000000000000000000000000000000000000000000000000000000000000000000000000000000000000000000000000000000000000000000000000000000000000000
310
00000000000000700BA0A04892244992244992246D03060F5DBB833945440000000049454E44AE426082
  0
ACDSRECORD
 90
        0
  2
AcDbDs::ID
280
    10
320
5E
  2
Thumbnail_Data
280
    15
 94
     2437
310
89504E470D0A1A0A0000000D4948445200000100000000C508030000008CFEDCE700000300504C5445FFFFFF000000C8C8C80000000000000000000000000000000000000000000000000000330000660000990000CC0000FF0033000033330033660033990033CC0033FF0066000066330066660066990066CC0066FF0099
310
000099330099660099990099CC0099FF00CC0000CC3300CC6600CC9900CCCC00CCFF00FF0000FF3300FF6600FF9900FFCC00FFFF3300003300333300663300993300CC3300FF3333003333333333663333993333CC3333FF3366003366333366663366993366CC3366FF3399003399333399663399993399CC3399FF33CC00
310
33CC3333CC6633CC9933CCCC33CCFF33FF0033FF3333FF6633FF9933FFCC33FFFF6600006600336600666600996600CC6600FF6633006633336633666633996633CC6633FF6666006666336666666666996666CC6666FF6699006699336699666699996699CC6699FF66CC0066CC3366CC6666CC9966CCCC66CCFF66FF0066
310
FF3366FF6666FF9966FFCC66FFFF9900009900339900669900999900CC9900FF9933009933339933669933999933CC9933FF9966009966339966669966999966CC9966FF9999009999339999669999999999CC9999FF99CC0099CC3399CC6699CC9999CCCC99CCFF99FF0099FF3399FF6699FF9999FFCC99FFFFCC0000CC00
310
33CC0066CC0099CC00CCCC00FFCC3300CC3333CC3366CC3399CC33CCCC33FFCC6600CC6633CC6666CC6699CC66CCCC66FFCC9900CC9933CC9966CC9999CC99CCCC99FFCCCC00CCCC33CCCC66CCCC99CCCCCCCCCCFFCCFF00CCFF33CCFF66CCFF99CCFFCCCCFFFFFF0000FF0033FF0066FF0099FF00CCFF00FFFF3300FF3333
310
FF3366FF3399FF33CCFF33FFFF6600FF6633FF6666FF6699FF66CCFF66FFFF9900FF9933FF9966FF9999FF99CCFF99FFFFCC00FFCC33FFCC66FFCC99FFCCCCFFCCFFFFFF00FFFF33FFFF66FFFF99FFFFCCFFFFFF0000000D0D0D1A1A1A2828283535354343435050505D5D5D6B6B6B787878868686939393A1A1A1AEAEAEBB
310
BBBBC9C9C9D6D6D6E4E4E4F1F1F1FFFFFF000000000000000000000000000000000000000000000000000000000000B0E2D235000005874944415478DAED9C096EA43010457DFF63BE938C94690CDECB1B34C9FFD148119D66A8EFDA5DC6394110044110044110044110044110044110044110044110044110044110044110
310
04411084BB4107BEF6B1B74AFD2801CC1240F3AA08F88304F0220FF523EA18013FD779B7FCCEAC8B3D5AFB2A024A1A60232F2BEC9BE49F7F58DE2DFF0E27F8D7097897FC7710F0DD99EF7202E8C9807EA11324FD5504FC2502789D335C4BC0FBE417014B0978A1FC4B09C08980F7A5830B0960301B7A3624AE23002702B25C
310
BC9C8066AD43C301FC7502B0B3F06E02A8A646BF9F80BAFC4F13C063049025C0E5846763777582806461D20B2E7C78164AF01E025C5D015E4C402A4386805D0A700F018FE30E025E8B5D1A70495E30F05CDA1BF53FDE11FCFF4B4B594C2E8F80DD2640F3C6591F9F66339FC7FDFC1C610C63BBB0FEBFB39F00D35F27AA18C5
310
6DF789E9EE08ED999CC0C8330F3A419BE7286AC0CFBF53172CBC3ED056A115971924E023FDB1FA949697828DDF1D06B3730FC5EF64E40DAF7813C8F8BEC0DF5C13E26202B59F00686BA43D6338E4F99881ABEE3236F43FAE9BBCDE2C25A03409548C1469B59212E0BC13AC4618ECDE31107BB10960F47C76022E2170C1B40C
310
BB9DA0214DE7EA309B041CF6EF89187A36EE738286408C2B1250DFE685EEA7A620FF1E13E8C851EA7EF11477346D276771CF2642B4FF8A333ABA6B182C31D067113C4C80F9CB81ADD74AB74C62D85FE8B09180E15B7386B49A010495413101A5AF1BB55C030C73CE54DA9FAD7959F2570804C4109137E50134EBF6E1CE8575
310
C5C9D38D21420E16431982E98CD2E434826865CDC101B639AF76D243DB396444281260358DD4CC2959FE160268D04FC9E9176AEBA4CE9D3E6B7477186C5580AD2233692BB60F5AB85AE7700F01BDA646392F4DDB242ED32718D6803D3E80E16F144FCBC41A90EB1B9D0C303454BEC907D02C38C07BC866AD4626BD8F8BA8D1
310
88B66E63A4D417AA1B5D18DC6AFBC27502AAD546CDE4D712504E08A97608B24D343A09E8784C431377988242A71443A32CE71E4E3561895E67CFAAEDA3200EF897900195F409EA2186492DC690AC746415666D6C0C3DD3F86060F171E52ED2AA3D525B5A651005C252F87C7EB2F540B71224DCB0CFFAD7E6D48589105A4C37
310
2D65A703ECBC3BB59C9DE85A7BD889DBD76E6CF3D518958939A114C6FA77A6166F8DED49C0302E22DDCD2E1E9A0FE8A482CAC2051DD46C5B6CDC2D8F1350EB714CDA57357D28AE7DB43E541B364B7C00350DDBA0248628CC4D26D00E51462BE5FAE8CC315356C9BB36469A71924A749AAF739358C1DD0498EF9171260C1E15
310
A3A66CFB0960DD8DB14471AA36CD9D0D91E9D4B7F321C9761B8C6AB3AB1E303BB8811C20D1613A1594FD049463F14882C0BC45C2F3DBE3F427CC5D895047AA76E7C6889F61B40E10D20C0F4B6BF64D0444153C4CD5A2CCCD3BDEBB399A76F3C0E60AA3ADFCF90D4CDC16FF624A6206EAC3634CCEB8FCAB22DB460DE88CF005
310
EF16EB45C712B86735C0D285C070928430A71D8CA4F76940CF373EDB834D5589E77E1A99D2A23D946102A8663F7D751EB9E64D631B18AC0F8BBBF1C0443A4B3AD940C4598ABD76EC594CC0700F884AB3A677B01F579B2A0CD769531460FA38358CD974BAD4F556E9BE30C8545A4A7192AB63C085B8B552D78A4902D6B95E46
310
33C1CED6114B9DA08ECEBE142240048800112002448020088220085BE3ED71F0C71F8DC6115C3F8AEAB35BCCF97174A2DCDFD3CFD207AF9D395F3E117CF87CC2C17136FC6C5F703D140671BB9CCB011C7C0B236EEB7A3A83F7C99C37C57D0B01C7CB30FE5FB908767681C2D7659C6F90F2D342E75AFB7BE169BDBE6CE7AA14
310
DFC0C045AF833586CB067AFCCAACCBFBA4AE5BEDFE9E8745109EB9BFA83E4BCF480B82707FF4FCAEF6AF0810012240100441100441100441100441100441100441100441107E23FE019C372FAFB533C2C30000000049454E44AE42608210CF051C594F3413403CD33779B14306FBFD069192B52F992312B7F65D66B6463E2E
310
17920983C7C98F0248EC3A69E3FDC7E43DE3C5BDD15662A7ED94F6F144D225E791E9E35BC0BA1EC0F7D60902F04900376D2B2900022000728202200002200002200002900720494C000440000440000440005E0B40A9B00008800008800008C08B01587F08C2FCFB0FA5BF1C31707CFE85AA375026280002200002C0372F0A
310
9CF2F9076AE282281F9A5A7B0000000049454E44AE426082
  0
ACDSRECORD
 90
        0
  2
AcDbDs::ID
280
    10
320
22
  2
Thumbnail_Data
280
    15
 94
     2307
310
89504E470D0A1A0A0000000D4948445200000100000000900803000000D0BD45A300000300504C5445212830000000C8C8C80000000000000000000000000000000000000000000000000000330000660000990000CC0000FF0033000033330033660033990033CC0033FF0066000066330066660066990066CC0066FF0099
310
000099330099660099990099CC0099FF00CC0000CC3300CC6600CC9900CCCC00CCFF00FF0000FF3300FF6600FF9900FFCC00FFFF3300003300333300663300993300CC3300FF3333003333333333663333993333CC3333FF3366003366333366663366993366CC3366FF3399003399333399663399993399CC3399FF33CC00
310
33CC3333CC6633CC9933CCCC33CCFF33FF0033FF3333FF6633FF9933FFCC33FFFF6600006600336600666600996600CC6600FF6633006633336633666633996633CC6633FF6666006666336666666666996666CC6666FF6699006699336699666699996699CC6699FF66CC0066CC3366CC6666CC9966CCCC66CCFF66FF0066
310
FF3366FF6666FF9966FFCC66FFFF9900009900339900669900999900CC9900FF9933009933339933669933999933CC9933FF9966009966339966669966999966CC9966FF9999009999339999669999999999CC9999FF99CC0099CC3399CC6699CC9999CCCC99CCFF99FF0099FF3399FF6699FF9999FFCC99FFFFCC0000CC00
310
33CC0066CC0099CC00CCCC00FFCC3300CC3333CC3366CC3399CC33CCCC33FFCC6600CC6633CC6666CC6699CC66CCCC66FFCC9900CC9933CC9966CC9999CC99CCCC99FFCCCC00CCCC33CCCC66CCCC99CCCCCCCCCCFFCCFF00CCFF33CCFF66CCFF99CCFFCCCCFFFFFF0000FF0033FF0066FF0099FF00CCFF00FFFF3300FF3333
310
FF3366FF3399FF33CCFF33FFFF6600FF6633FF6666FF6699FF66CCFF66FFFF9900FF9933FF9966FF9999FF99CCFF99FFFFCC00FFCC33FFCC66FFCC99FFCCCCFFCCFFFFFF00FFFF33FFFF66FFFF99FFFFCCFFFFFF0000000D0D0D1A1A1A2828283535354343435050505D5D5D6B6B6B787878868686939393A1A1A1AEAEAEBB
310
BBBBC9C9C9D6D6D6E4E4E4F1F1F1FFFFFF000000000000000000000000000000000000000000000000000000000000B21171F6000005524944415478DAED9DD176E3200C44F9FFFFBDEF7BF6A4B6B101496081E356DA976EEA38309146D2006E4A616161615F6E74D86F9CF5970380ED7BEB7D3FAFF18000600A002F8AE529
310
00F04AB25266DCE3B4AF02E0FFD486C1ABCFF555C90CFFF7BF2B994FE080BF0EC0CBAA397700ECF4F91D95EF4C005E51FA7B9320E58F7F0A00D2DF0680F7916100E0F9FE17CEDF158037CE3F007004E095F3770480D16AE8D994180078BDBF49062F07406B7650D3E11F04A0FCF9F703A064C32F76011F00B47AF05900580B
310
80DE10A6DAE49927AFDE01A0181635000406B48FF2D500707BFE7392F4A21068CDFFFEF85700F0B82D00E0C536C903F6E46DFB84C6551FEE66BB0D554EC438288457DD01A0EF7F54CAB91F00F6AC963210FA862F92A63B000C464E038023ADFF80207D88991E9907003D572B00B07940DA0A1BDBB4D0628CB41C00863D206D
310
F3FFACB3B7EFC7585DF08407B401A85C903EFF2AF5E0A94DAA912E0F0050F97881A42F0094F9E913079B0788CB8C22F5177DC31C00AADFE3F5455A1D7C1D806DFEE7AFB9F921C62F7D4313670F30965CD801D863C0B59F9D468258C3BE0780BD101ADD2E455D559CDE0B80CA178869A0ECEA07C7C6CA3AC0B4AF33D1026047
310
A17649F7A0F7285A9205F0F19F8DF82500463C92E90058D284E197E74C7E8E072DC470898FE75485CBCC4822079C3A83C1DDA4CC0460382C5A1E205F591510B5F8F706805EB8DC858B5AB78BC0375343E0822F77344121D930420C2431786EF40217801127D4A0216A82308D2ECA5079ADAB042D1F9ECA854DA5B5A2FAA6BE
310
DC4873583300E86D8995FB92463D8016F12C2E84102B93468577E83F3F8D403E701500EE3AEFFC7A02A1432985C1EB6BB702737A25087A0DA02B9C1719A8BD25662F9A1EACE1C454A4212E309219809404C968C9CA509EB53A8A74AA3994010006BF6F378D45DCC55011AC7409FBB414840F0035E9D01902A1D92BB30FA6C4
310
D8BF1E6449ACEEA5400D02EA99826A2A6EBA871651F797CBEF384187371AD242914168F2446F7A2E32B5D71A313DFD8ECAC754A293A2B9500B7AC35E18DC82DF238468B4CA7539114C1033D5F5D5FBE0C62F855CAACB18F66562D79506EEFA0E3A007212436FB2D0BB940551C0CD8BEBAD1D2D3259590AF72E5263BCC440A3
310
86A2B8E05CE62C8C208A40B7DD45AE9FE452FC82E62C4D902AC5D0C33F9EAA1DAD9C378D030CEC26EA32D8D4163A1068CA6ECF9502A8012F7C777D1A4D912B980F804B4EE4E2A48CF541030FE959560CA28B255A6F976D351C50083D0591DE0ED329531BF64DB00600FB6DE9B910ADBFA27384CC070061F3F0FD28A1DF699A
310
3987251C60DAE72AF2C0ACE397F34970DFE838AE47E2314CD6EE10E19C711B8BFBA2F437B8FDB85F899AD20CD95270593657A98A39713901807B2D0F2DEEAC52167AE3989E00C0126974B40C67F5475A739BEB27CE77C9F6419B779855CA786375BC18809E738C153D82566421900A7DACB3D203A8146DA38208CDB2535B49
310
928AB279E705C6749D26DF990E02585EC0C2A637D320FD7ED66ED8FB651B1A1B08592A8820C5BE8D1F6EF62E947546EA0D96FE10300D14CB80FB7B59A11EADA18E2F07E0EB4708516AE219EB06C2383BFCB024F6B80500014000100004000140585858585858D8DC6CBB3D0C89E358FBE97941FB2AC0764428ED97703908BF
310
E9C9C751AAE366D9D9FBC4D7FC69B1E3F443769A327B3A0CDB59E94C3A26FB818BEA42B6CFEFFA4090ECA6A4AF02E03464F273033B00FB99F0FDD959D943B4C80F92EE77CB6E777E98CBF1CB6F00607F2AD8698A640BC89CFEAAD0860FA7D9E5F2FB719A2EFF90C3F5D19F1E1116F6C569E3DB64CF0020000800C2C2C2C2C2
310
C2C2C2C2C2C2C2C2C2C2C2C2C2C2C2C27EBFFD0363A621DC136792F30000000049454E44AE426082CF1A9DE12F483C7C782E064C0E2E50CC72B47316324FD4B2F5C00465029D58A06E736CB13146C8ECD4D403DB1DD8D1F11B0801AE0943557F2A3C61EBDEBEB03F39C64980C8BA8C94E3B9CD9AFA32A42460BA1A5AFC3FFB
310
1F5DD3EFE8BFC32AF10000000049454E44AE426082
  0
ENDSEC
  0
EOF
