  0
SECTION
  2
HEADER
  9
$ACADVER
  1
AC1027
  9
$ACADMAINTVER
 70
    55
  9
$DWGCODEPAGE
  3
ANSI_1252
  9
$LASTSAVEDBY
  1
jackson
  9
$REQUIREDVERSIONS
160
                 0
  9
$INSBASE
 10
0.0
 20
0.0
 30
0.0
  9
$EXTMIN
 10
270.7665178746352
 20
279.1386047926963
 30
0.0
  9
$EXTMAX
 10
1476.604417406211
 20
571.3409818260362
 30
0.0
  9
$LIMMIN
 10
0.0
 20
0.0
  9
$LIMMAX
 10
1000.0
 20
750.0
  9
$ORTHOMODE
 70
     0
  9
$REGENMODE
 70
     1
  9
$FILLMODE
 70
     1
  9
$QTEXTMODE
 70
     0
  9
$MIRRTEXT
 70
     0
  9
$LTSCALE
 40
1.0
  9
$ATTMODE
 70
     1
  9
$TEXTSIZE
 40
0.2
  9
$TRACEWID
 40
0.05
  9
$TEXTSTYLE
  7
Standard
  9
$CLAYER
  8
0
  9
$CELTYPE
  6
ByLayer
  9
$CECOLOR
 62
   256
  9
$CELTSCALE
 40
1.0
  9
$DISPSILH
 70
     0
  9
$DIMSCALE
 40
60.0
  9
$DIMASZ
 40
0.18
  9
$DIMEXO
 40
0.0625
  9
$DIMDLI
 40
0.38
  9
$DIMRND
 40
0.0
  9
$DIMDLE
 40
0.0
  9
$DIMEXE
 40
0.18
  9
$DIMTP
 40
0.0
  9
$DIMTM
 40
0.0
  9
$DIMTXT
 40
0.18
  9
$DIMCEN
 40
0.09
  9
$DIMTSZ
 40
0.0
  9
$DIMTOL
 70
     0
  9
$DIMLIM
 70
     0
  9
$DIMTIH
 70
     1
  9
$DIMTOH
 70
     1
  9
$DIMSE1
 70
     0
  9
$DIMSE2
 70
     0
  9
$DIMTAD
 70
     0
  9
$DIMZIN
 70
     0
  9
$DIMBLK
  1

  9
$DIMASO
 70
     1
  9
$DIMSHO
 70
     1
  9
$DIMPOST
  1
 MM\X
  9
$DIMAPOST
  1
 IN.
  9
$DIMALT
 70
     1
  9
$DIMALTD
 70
     1
  9
$DIMALTF
 40
0.0393700787401575
  9
$DIMLFAC
 40
1.0
  9
$DIMTOFL
 70
     0
  9
$DIMTVP
 40
0.0
  9
$DIMTIX
 70
     0
  9
$DIMSOXD
 70
     0
  9
$DIMSAH
 70
     0
  9
$DIMBLK1
  1

  9
$DIMBLK2
  1

  9
$DIMSTYLE
  2
Standard
  9
$DIMCLRD
 70
     0
  9
$DIMCLRE
 70
     0
  9
$DIMCLRT
 70
     0
  9
$DIMTFAC
 40
1.0
  9
$DIMGAP
 40
0.09
  9
$DIMJUST
 70
     0
  9
$DIMSD1
 70
     0
  9
$DIMSD2
 70
     0
  9
$DIMTOLJ
 70
     1
  9
$DIMTZIN
 70
     0
  9
$DIMALTZ
 70
     0
  9
$DIMALTTZ
 70
     0
  9
$DIMUPT
 70
     0
  9
$DIMDEC
 70
     0
  9
$DIMTDEC
 70
     0
  9
$DIMALTU
 70
     2
  9
$DIMALTTD
 70
     1
  9
$DIMTXSTY
  7
Standard
  9
$DIMAUNIT
 70
     0
  9
$DIMADEC
 70
     0
  9
$DIMALTRND
 40
1.0
  9
$DIMAZIN
 70
     0
  9
$DIMDSEP
 70
    46
  9
$DIMATFIT
 70
     3
  9
$DIMFRAC
 70
     0
  9
$DIMLDRBLK
  1

  9
$DIMLUNIT
 70
     2
  9
$DIMLWD
 70
    -2
  9
$DIMLWE
 70
    -2
  9
$DIMTMOVE
 70
     0
  9
$DIMFXL
 40
1.0
  9
$DIMFXLON
 70
     0
  9
$DIMJOGANG
 40
0.7853981633974483
  9
$DIMTFILL
 70
     0
  9
$DIMTFILLCLR
 70
     0
  9
$DIMARCSYM
 70
     0
  9
$DIMLTYPE
  6

  9
$DIMLTEX1
  6

  9
$DIMLTEX2
  6

  9
$DIMTXTDIRECTION
 70
     0
  9
$LUNITS
 70
     2
  9
$LUPREC
 70
     2
  9
$SKETCHINC
 40
0.1
  9
$FILLETRAD
 40
0.0
  9
$AUNITS
 70
     0
  9
$AUPREC
 70
     0
  9
$MENU
  1
.
  9
$ELEVATION
 40
0.0
  9
$PELEVATION
 40
0.0
  9
$THICKNESS
 40
0.0
  9
$LIMCHECK
 70
     0
  9
$CHAMFERA
 40
0.0
  9
$CHAMFERB
 40
0.0
  9
$CHAMFERC
 40
0.0
  9
$CHAMFERD
 40
0.0
  9
$SKPOLY
 70
     0
  9
$TDCREATE
 40
2454179.421566760
  9
$TDUCREATE
 40
2454179.713233426
  9
$TDUPDATE
 40
2457206.376676424
  9
$TDUUPDATE
 40
2457206.668343091
  9
$TDINDWG
 40
0.7629467130
  9
$TDUSRTIMER
 40
0.7629467130
  9
$USRTIMER
 70
     1
  9
$ANGBASE
 50
0.0
  9
$ANGDIR
 70
     0
  9
$PDMODE
 70
     0
  9
$PDSIZE
 40
0.0
  9
$PLINEWID
 40
0.0
  9
$SPLFRAME
 70
     0
  9
$SPLINETYPE
 70
     6
  9
$SPLINESEGS
 70
     8
  9
$HANDSEED
  5
E39
  9
$SURFTAB1
 70
     6
  9
$SURFTAB2
 70
     6
  9
$SURFTYPE
 70
     6
  9
$SURFU
 70
     6
  9
$SURFV
 70
     6
  9
$UCSBASE
  2

  9
$UCSNAME
  2

  9
$UCSORG
 10
0.0
 20
0.0
 30
0.0
  9
$UCSXDIR
 10
1.0
 20
0.0
 30
0.0
  9
$UCSYDIR
 10
0.0
 20
1.0
 30
0.0
  9
$UCSORTHOREF
  2

  9
$UCSORTHOVIEW
 70
     0
  9
$UCSORGTOP
 10
0.0
 20
0.0
 30
0.0
  9
$UCSORGBOTTOM
 10
0.0
 20
0.0
 30
0.0
  9
$UCSORGLEFT
 10
0.0
 20
0.0
 30
0.0
  9
$UCSORGRIGHT
 10
0.0
 20
0.0
 30
0.0
  9
$UCSORGFRONT
 10
0.0
 20
0.0
 30
0.0
  9
$UCSORGBACK
 10
0.0
 20
0.0
 30
0.0
  9
$PUCSBASE
  2

  9
$PUCSNAME
  2

  9
$PUCSORG
 10
0.0
 20
0.0
 30
0.0
  9
$PUCSXDIR
 10
1.0
 20
0.0
 30
0.0
  9
$PUCSYDIR
 10
0.0
 20
1.0
 30
0.0
  9
$PUCSORTHOREF
  2

  9
$PUCSORTHOVIEW
 70
     0
  9
$PUCSORGTOP
 10
0.0
 20
0.0
 30
0.0
  9
$PUCSORGBOTTOM
 10
0.0
 20
0.0
 30
0.0
  9
$PUCSORGLEFT
 10
0.0
 20
0.0
 30
0.0
  9
$PUCSORGRIGHT
 10
0.0
 20
0.0
 30
0.0
  9
$PUCSORGFRONT
 10
0.0
 20
0.0
 30
0.0
  9
$PUCSORGBACK
 10
0.0
 20
0.0
 30
0.0
  9
$USERI1
 70
     0
  9
$USERI2
 70
     0
  9
$USERI3
 70
     0
  9
$USERI4
 70
     0
  9
$USERI5
 70
     0
  9
$USERR1
 40
0.0
  9
$USERR2
 40
0.0
  9
$USERR3
 40
0.0
  9
$USERR4
 40
0.0
  9
$USERR5
 40
0.0
  9
$WORLDVIEW
 70
     1
  9
$SHADEDGE
 70
     3
  9
$SHADEDIF
 70
    70
  9
$TILEMODE
 70
     1
  9
$MAXACTVP
 70
    64
  9
$PINSBASE
 10
0.0
 20
0.0
 30
0.0
  9
$PLIMCHECK
 70
     0
  9
$PEXTMIN
 10
-0.3364761813161792
 20
-0.3116110158726855
 30
0.0
  9
$PEXTMAX
 10
10.86607271795274
 20
8.326401927579581
 30
0.0
  9
$PLIMMIN
 10
-0.2500002402958907
 20
-0.2499999962453767
  9
$PLIMMAX
 10
10.74999951940822
 20
8.249999763458733
  9
$UNITMODE
 70
     0
  9
$VISRETAIN
 70
     1
  9
$PLINEGEN
 70
     0
  9
$PSLTSCALE
 70
     1
  9
$TREEDEPTH
 70
  3020
  9
$CMLSTYLE
  2
Standard
  9
$CMLJUST
 70
     0
  9
$CMLSCALE
 40
1.0
  9
$PROXYGRAPHICS
 70
     1
  9
$MEASUREMENT
 70
     0
  9
$CELWEIGHT
370
    -1
  9
$ENDCAPS
280
     0
  9
$JOINSTYLE
280
     0
  9
$LWDISPLAY
290
     1
  9
$INSUNITS
 70
     4
  9
$HYPERLINKBASE
  1

  9
$STYLESHEET
  1

  9
$XEDIT
290
     1
  9
$CEPSNTYPE
380
     0
  9
$PSTYLEMODE
290
     1
  9
$FINGERPRINTGUID
  2
{FDEAD576-A652-11D2-9A35-0060089B3A3F}
  9
$VERSIONGUID
  2
{64C613F2-A8C8-49A5-8CE5-67522606F62C}
  9
$EXTNAMES
290
     1
  9
$PSVPSCALE
 40
0.0
  9
$OLESTARTUP
290
     0
  9
$SORTENTS
280
   127
  9
$INDEXCTL
280
     0
  9
$HIDETEXT
280
     1
  9
$XCLIPFRAME
280
     0
  9
$HALOGAP
280
     0
  9
$OBSCOLOR
 70
   257
  9
$OBSLTYPE
280
     0
  9
$INTERSECTIONDISPLAY
280
     0
  9
$INTERSECTIONCOLOR
 70
   257
  9
$DIMASSOC
280
     2
  9
$PROJECTNAME
  1

  9
$CAMERADISPLAY
290
     0
  9
$LENSLENGTH
 40
50.0
  9
$CAMERAHEIGHT
 40
0.0
  9
$STEPSPERSEC
 40
2.0
  9
$STEPSIZE
 40
6.0
  9
$3DDWFPREC
 40
2.0
  9
$PSOLWIDTH
 40
0.25
  9
$PSOLHEIGHT
 40
4.0
  9
$LOFTANG1
 40
1.570796326794896
  9
$LOFTANG2
 40
1.570796326794896
  9
$LOFTMAG1
 40
0.0
  9
$LOFTMAG2
 40
0.0
  9
$LOFTPARAM
 70
     7
  9
$LOFTNORMALS
280
     1
  9
$LATITUDE
 40
37.795
  9
$LONGITUDE
 40
-122.394
  9
$NORTHDIRECTION
 40
0.0
  9
$TIMEZONE
 70
 -8000
  9
$LIGHTGLYPHDISPLAY
280
     1
  9
$TILEMODELIGHTSYNCH
280
     1
  9
$CMATERIAL
347
765
  9
$SOLIDHIST
280
     1
  9
$SHOWHIST
280
     1
  9
$DWFFRAME
280
     2
  9
$DGNFRAME
280
     0
  9
$REALWORLDSCALE
290
     1
  9
$INTERFERECOLOR
 62
     1
  9
$INTERFEREOBJVS
345
787
  9
$INTERFEREVPVS
346
784
  9
$CSHADOW
280
     0
  9
$SHADOWPLANELOCATION
 40
0.0
  0
ENDSEC
  0
SECTION
  2
CLASSES
  0
CLASS
  1
ACDBDICTIONARYWDFLT
  2
AcDbDictionaryWithDefault
  3
ObjectDBX Classes
 90
        0
 91
        1
280
     0
281
     0
  0
CLASS
  1
DICTIONARYVAR
  2
AcDbDictionaryVar
  3
ObjectDBX Classes
 90
        0
 91
       11
280
     0
281
     0
  0
CLASS
  1
DIMASSOC
  2
AcDbDimAssoc
  3
"AcDbDimAssoc|Product Desc:     AcDim ARX App For Dimension|Company:          Autodesk, Inc.|WEB Address:      www.autodesk.com"
 90
        0
 91
        3
280
     0
281
     0
  0
CLASS
  1
MATERIAL
  2
AcDbMaterial
  3
ObjectDBX Classes
 90
     1153
 91
        3
280
     0
281
     0
  0
CLASS
  1
VISUALSTYLE
  2
AcDbVisualStyle
  3
ObjectDBX Classes
 90
     4095
 91
       26
280
     0
281
     0
  0
CLASS
  1
TABLESTYLE
  2
AcDbTableStyle
  3
ObjectDBX Classes
 90
     4095
 91
        1
280
     0
281
     0
  0
CLASS
  1
SCALE
  2
AcDbScale
  3
ObjectDBX Classes
 90
     1153
 91
       33
280
     0
281
     0
  0
CLASS
  1
MLEADERSTYLE
  2
AcDbMLeaderStyle
  3
ACDB_MLEADERSTYLE_CLASS
 90
     4095
 91
        1
280
     0
281
     0
  0
CLASS
  1
CELLSTYLEMAP
  2
AcDbCellStyleMap
  3
ObjectDBX Classes
 90
     1152
 91
        1
280
     0
281
     0
  0
CLASS
  1
SORTENTSTABLE
  2
AcDbSortentsTable
  3
ObjectDBX Classes
 90
        0
 91
        1
280
     0
281
     0
  0
CLASS
  1
ACDBSECTIONVIEWSTYLE
  2
AcDbSectionViewStyle
  3
ObjectDBX Classes
 90
     1025
 91
        1
280
     0
281
     0
  0
CLASS
  1
ACDBDETAILVIEWSTYLE
  2
AcDbDetailViewStyle
  3
ObjectDBX Classes
 90
     1025
 91
        1
280
     0
281
     0
  0
CLASS
  1
PLOTSETTINGS
  2
AcDbPlotSettings
  3
ObjectDBX Classes
 90
        0
 91
        1
280
     0
281
     0
  0
ENDSEC
  0
SECTION
  2
TABLES
  0
TABLE
  2
VPORT
  5
8
330
0
100
AcDbSymbolTable
 70
     1
  0
VPORT
  5
763
330
8
100
AcDbSymbolTableRecord
100
AcDbViewportTableRecord
  2
*Active
 70
     0
 10
0.0
 20
0.0
 11
1.0
 21
1.0
 12
586.1711756068801
 22
435.8889991093127
 13
0.0
 23
0.0
 14
0.5
 24
0.5
 15
6.0
 25
6.0
 16
0.0
 26
0.0
 36
1.0
 17
0.0
 27
0.0
 37
0.0
 40
381.7070240989111
 41
1.777618364418938
 42
50.0
 43
0.0
 44
0.0
 50
0.0
 51
0.0
 71
     0
 72
  1000
 73
     1
 74
     3
 75
     0
 76
     0
 77
     0
 78
     0
281
     0
 65
     1
110
0.0
120
0.0
130
0.0
111
1.0
121
0.0
131
0.0
112
0.0
122
1.0
132
0.0
 79
     0
146
0.0
348
783
 60
     3
 61
     5
292
     1
282
     1
141
0.0
142
0.0
 63
   250
421
  3355443
1001
ACAD_NAV_VCDISPLAY
1070
     3
  0
ENDTAB
  0
TABLE
  2
LTYPE
  5
5
330
0
100
AcDbSymbolTable
 70
     2
  0
LTYPE
  5
14
330
5
100
AcDbSymbolTableRecord
100
AcDbLinetypeTableRecord
  2
ByBlock
 70
     0
  3

 72
    65
 73
     0
 40
0.0
  0
LTYPE
  5
15
330
5
100
AcDbSymbolTableRecord
100
AcDbLinetypeTableRecord
  2
ByLayer
 70
     0
  3

 72
    65
 73
     0
 40
0.0
  0
LTYPE
  5
16
330
5
100
AcDbSymbolTableRecord
100
AcDbLinetypeTableRecord
  2
Continuous
 70
     0
  3
Solid line
 72
    65
 73
     0
 40
0.0
  0
ENDTAB
  0
TABLE
  2
LAYER
  5
2
102
{ACAD_XDICTIONARY
360
82B
102
}
330
0
100
AcDbSymbolTable
 70
     2
  0
LAYER
  5
10
102
{ACAD_XDICTIONARY
360
815
102
}
330
2
100
AcDbSymbolTableRecord
100
AcDbLayerTableRecord
  2
0
 70
     0
 62
     7
  6
Continuous
370
    -3
390
F
347
775
348
0
  0
LAYER
  5
107
330
2
100
AcDbSymbolTableRecord
100
AcDbLayerTableRecord
  2
Defpoints
 70
     0
 62
     7
  6
Continuous
290
     0
370
    -3
390
F
347
775
348
0
  0
ENDTAB
  0
TABLE
  2
STYLE
  5
3
330
0
100
AcDbSymbolTable
 70
     1
  0
STYLE
  5
11
330
3
100
AcDbSymbolTableRecord
100
AcDbTextStyleTableRecord
  2
Standard
 70
     0
 40
0.0
 41
1.0
 50
0.0
 71
     0
 42
0.2
  3
ARIAL.TTF
  4

1001
ACAD
1000
Arial
1071
       34
  0
ENDTAB
  0
TABLE
  2
VIEW
  5
6
330
0
100
AcDbSymbolTable
 70
     2
  0
ENDTAB
  0
TABLE
  2
UCS
  5
7
330
0
100
AcDbSymbolTable
 70
     0
  0
ENDTAB
  0
TABLE
  2
APPID
  5
9
330
0
100
AcDbSymbolTable
 70
     9
  0
APPID
  5
12
330
9
100
AcDbSymbolTableRecord
100
AcDbRegAppTableRecord
  2
ACAD
 70
     0
  0
APPID
  5
7B4
330
9
100
AcDbSymbolTableRecord
100
AcDbRegAppTableRecord
  2
ACAD_MLEADERVER
 70
     0
  0
APPID
  5
7BF
330
9
100
AcDbSymbolTableRecord
100
AcDbRegAppTableRecord
  2
AcadAnnoPO
 70
     0
  0
APPID
  5
7C0
330
9
100
AcDbSymbolTableRecord
100
AcDbRegAppTableRecord
  2
ACAD_DSTYLE_DIMJAG
 70
     0
  0
APPID
  5
7C1
330
9
100
AcDbSymbolTableRecord
100
AcDbRegAppTableRecord
  2
ACAD_DSTYLE_DIMBREAK
 70
     0
  0
APPID
  5
7C2
330
9
100
AcDbSymbolTableRecord
100
AcDbRegAppTableRecord
  2
ACAD_DSTYLE_DIMTALN
 70
     0
  0
APPID
  5
810
330
9
100
AcDbSymbolTableRecord
100
AcDbRegAppTableRecord
  2
ACAD_PSEXT
 70
     0
  0
APPID
  5
DCD
330
9
100
AcDbSymbolTableRecord
100
AcDbRegAppTableRecord
  2
ACAD_EXEMPT_FROM_CAD_STANDARDS
 70
     0
  0
APPID
  5
DD6
330
9
100
AcDbSymbolTableRecord
100
AcDbRegAppTableRecord
  2
ACAD_NAV_VCDISPLAY
 70
     0
  0
ENDTAB
  0
TABLE
  2
DIMSTYLE
  5
A
330
0
100
AcDbSymbolTable
 70
     3
100
AcDbDimStyleTable
 71
     2
340
27
340
7C3
  0
DIMSTYLE
105
27
102
{ACAD_REACTORS
330
C2A
330
C68
330
C9B
102
}
330
A
100
AcDbSymbolTableRecord
100
AcDbDimStyleTableRecord
  2
Standard
 70
     0
340
11
  0
DIMSTYLE
105
134
330
A
100
AcDbSymbolTableRecord
100
AcDbDimStyleTableRecord
  2
KRYTON
 70
     0
  3
MM\X
  4
IN.
 41
2.0
140
3.0
143
0.0393700787401575
147
0.54
170
     1
171
     1
271
     1
272
     1
274
     1
340
11
  0
DIMSTYLE
105
7C3
102
{ACAD_REACTORS
330
70A
102
}
330
A
100
AcDbSymbolTableRecord
100
AcDbDimStyleTableRecord
  2
default
 70
     0
  3
 MM\X
  4
 IN.
 40
60.0
143
0.0393700787401575
148
1.0
170
     1
171
     1
271
     0
272
     0
274
     1
340
11
1001
ACAD_DSTYLE_DIMBREAK
1070
   391
1040
0.125
1001
ACAD_DSTYLE_DIMJAG
1070
   388
1040
1.5
1001
ACAD_DSTYLE_DIMTALN
1070
   392
1070
     0
  0
ENDTAB
  0
TABLE
  2
BLOCK_RECORD
  5
1
330
0
100
AcDbSymbolTable
 70
     7
  0
BLOCK_RECORD
  5
1F
102
{ACAD_XDICTIONARY
360
A12
102
}
330
1
100
AcDbSymbolTableRecord
100
AcDbBlockTableRecord
  2
*Model_Space
340
22
 70
     0
280
     1
281
     0
  0
BLOCK_RECORD
  5
5D
330
1
100
AcDbSymbolTableRecord
100
AcDbBlockTableRecord
  2
*Paper_Space
340
5E
 70
     0
280
     1
281
     0
  0
BLOCK_RECORD
  5
58
330
1
100
AcDbSymbolTableRecord
100
AcDbBlockTableRecord
  2
*Paper_Space0
340
59
 70
     0
280
     1
281
     0
  0
BLOCK_RECORD
  5
135
102
{ACAD_XDICTIONARY
360
137
102
}
330
1
100
AcDbSymbolTableRecord
100
AcDbBlockTableRecord
  2
joint line
340
0
102
{BLKREFS
331
2C3
331
AEE
331
AEF
102
}
 70
     4
280
     1
281
     0
  0
BLOCK_RECORD
  5
70B
330
1
100
AcDbSymbolTableRecord
100
AcDbBlockTableRecord
  2
*D2
340
0
 70
     0
280
     1
281
     0
  0
BLOCK_RECORD
  5
9DC
330
1
100
AcDbSymbolTableRecord
100
AcDbBlockTableRecord
  2
$AUDIT_BAD_BLOCK_RECORD1
340
0
 70
     0
280
     1
281
     0
  0
BLOCK_RECORD
  5
C2B
330
1
100
AcDbSymbolTableRecord
100
AcDbBlockTableRecord
  2
*D4
340
0
 70
     0
280
     1
281
     0
  0
BLOCK_RECORD
  5
C69
330
1
100
AcDbSymbolTableRecord
100
AcDbBlockTableRecord
  2
*D5
340
0
 70
     0
280
     1
281
     0
  0
BLOCK_RECORD
  5
C9C
330
1
100
AcDbSymbolTableRecord
100
AcDbBlockTableRecord
  2
*D6
340
0
 70
     0
280
     1
281
     0
  0
ENDTAB
  0
ENDSEC
  0
SECTION
  2
BLOCKS
  0
BLOCK
  5
20
330
1F
100
AcDbEntity
  8
0
100
AcDbBlockBegin
  2
*Model_Space
 70
     0
 10
0.0
 20
0.0
 30
0.0
  3
*Model_Space
  1

  0
ENDBLK
  5
21
330
1F
100
AcDbEntity
  8
0
100
AcDbBlockEnd
  0
BLOCK
  5
5F
330
5D
100
AcDbEntity
 67
     1
  8
0
100
AcDbBlockBegin
  2
*Paper_Space
 70
     0
 10
0.0
 20
0.0
 30
0.0
  3
*Paper_Space
  1

  0
ENDBLK
  5
60
330
5D
100
AcDbEntity
 67
     1
  8
0
100
AcDbBlockEnd
  0
BLOCK
  5
5A
330
58
100
AcDbEntity
 67
     1
  8
0
100
AcDbBlockBegin
  2
*Paper_Space0
 70
     0
 10
0.0
 20
0.0
 30
0.0
  3
*Paper_Space0
  1

  0
VIEWPORT
  5
E5
330
58
100
AcDbEntity
 67
     1
  8
0
100
AcDbViewport
 10
7.026676524828074
 20
4.711697252950093
 30
0.0
 40
21.95464872994007
 41
11.63754836446702
 68
     0
 69
     0
 12
7.026676524828074
 22
4.711697252950093
 13
0.0
 23
0.0
 14
0.5
 24
0.5
 15
0.5
 25
0.5
 16
0.0
 26
0.0
 36
1.0
 17
0.0
 27
0.0
 37
0.0
 42
50.0
 43
0.0
 44
0.0
 45
11.63754836446702
 50
0.0
 51
0.0
 72
  1000
 90
    32800
  1

281
     0
 71
     1
 74
     0
110
0.0
120
0.0
130
0.0
111
1.0
121
0.0
131
0.0
112
0.0
122
1.0
132
0.0
 79
     0
146
0.0
170
     0
 61
     5
348
783
292
     1
282
     1
141
0.0
142
0.0
 63
   250
421
  3355443
  0
VIEWPORT
  5
E7
330
58
100
AcDbEntity
 67
     1
  8
0
100
AcDbViewport
 10
5.24999976158142
 20
3.99999976158142
 30
0.0
 40
8.399999618530271
 41
6.399999618530272
 68
     0
 69
     0
 12
99.99843372624377
 22
35.45694335855412
 13
0.0
 23
0.0
 14
0.5
 24
0.5
 15
0.5
 25
0.5
 16
0.0
 26
0.0
 36
1.0
 17
0.0
 27
0.0
 37
0.0
 42
50.0
 43
0.0
 44
0.0
 45
123.4430894872608
 50
0.0
 51
0.0
 72
  1000
 90
    32864
  1

281
     0
 71
     1
 74
     0
110
0.0
120
0.0
130
0.0
111
1.0
121
0.0
131
0.0
112
0.0
122
1.0
132
0.0
 79
     0
146
0.0
170
     0
 61
     5
348
783
292
     1
282
     1
141
0.0
142
0.0
 63
   250
421
  3355443
  0
ENDBLK
  5
5B
330
58
100
AcDbEntity
 67
     1
  8
0
100
AcDbBlockEnd
  0
BLOCK
  5
138
330
135
100
AcDbEntity
  8
0
100
AcDbBlockBegin
  2
joint line
 70
     0
 10
0.0
 20
0.0
 30
0.0
  3
joint line
  1

  0
LWPOLYLINE
  5
136
330
135
100
AcDbEntity
  8
0
100
AcDbPolyline
 90
        7
 70
     0
 43
0.0
 10
40.06469683741646
 20
0.0
 10
14.66469683741647
 20
0.0
 10
0.0
 20
25.40000000000001
 10
0.0
 20
0.0
 10
0.0
 20
-25.40000000000001
 10
-14.66469683741645
 20
0.0
 10
-40.06469683741646
 20
0.0
  0
ENDBLK
  5
139
330
135
100
AcDbEntity
  8
0
100
AcDbBlockEnd
  0
BLOCK
  5
717
330
70B
100
AcDbEntity
  8
0
100
AcDbBlockBegin
  2
*D2
 70
     1
 10
0.0
 20
0.0
 30
0.0
  3
*D2
  1

  0
LINE
  5
C10
330
70B
100
AcDbEntity
  8
0
 62
     0
440
 16777216
370
    -2
100
AcDbLine
 10
505.7953154602792
 20
407.8218271284354
 30
0.0
 11
505.7953154602792
 21
360.5203243169503
 31
0.0
  0
LINE
  5
C11
330
70B
100
AcDbEntity
  8
0
 62
     0
440
 16777216
370
    -2
100
AcDbLine
 10
658.1019754435364
 20
407.8218271284354
 30
0.0
 11
658.1019754435364
 21
360.5203243169503
 31
0.0
  0
LINE
  5
C12
330
70B
100
AcDbEntity
  8
0
 62
     0
440
 16777216
370
    -2
100
AcDbLine
 10
516.5953154602791
 20
371.3203243169503
 30
0.0
 11
560.7464626415395
 21
371.3203243169503
 31
0.0
  0
LINE
  5
C13
330
70B
100
AcDbEntity
  8
0
 62
     0
440
 16777216
370
    -2
100
AcDbLine
 10
647.3019754435364
 20
371.3203243169503
 30
0.0
 11
603.1508282622761
 21
371.3203243169503
 31
0.0
  0
SOLID
  5
C14
330
70B
100
AcDbEntity
  8
0
 62
     0
440
 16777216
100
AcDbTrace
 10
516.5953154602791
 20
373.1203243169503
 30
0.0
 11
516.5953154602791
 21
369.5203243169503
 31
0.0
 12
505.7953154602792
 22
371.3203243169503
 32
0.0
 13
505.7953154602792
 23
371.3203243169503
 33
0.0
  0
SOLID
  5
C15
330
70B
100
AcDbEntity
  8
0
 62
     0
440
 16777216
100
AcDbTrace
 10
647.3019754435364
 20
373.1203243169503
 30
0.0
 11
647.3019754435364
 21
369.5203243169503
 31
0.0
 12
658.1019754435364
 22
371.3203243169503
 32
0.0
 13
658.1019754435364
 23
371.3203243169503
 33
0.0
  0
MTEXT
  5
C16
330
70B
100
AcDbEntity
  8
0
 62
     0
440
 16777216
100
AcDbMText
 10
581.9486454519078
 20
380.0901060359134
 30
0.0
 40
6.599999999999999
 41
0.0
 46
0.0
 71
     5
 72
     1
  1
\A1;152 MM
 73
     1
 44
1.0
  0
MTEXT
  5
C17
330
70B
100
AcDbEntity
  8
0
 62
     0
440
 16777216
100
AcDbMText
 10
581.9486454519078
 20
361.6906517385055
 30
0.0
 40
6.599999999999999
 41
0.0
 46
0.0
 71
     5
 72
     1
  1
\A1;[6.0 IN.]
 73
     1
 44
1.0
  0
POINT
  5
C18
330
70B
100
AcDbEntity
  8
Defpoints
 62
     0
440
 16777216
100
AcDbPoint
 10
505.7953154602792
 20
411.5718271284354
 30
0.0
  0
POINT
  5
C19
330
70B
100
AcDbEntity
  8
Defpoints
 62
     0
440
 16777216
100
AcDbPoint
 10
658.1019754435364
 20
411.5718271284354
 30
0.0
  0
POINT
  5
C1A
330
70B
100
AcDbEntity
  8
Defpoints
 62
     0
440
 16777216
100
AcDbPoint
 10
658.1019754435364
 20
371.3203243169503
 30
0.0
  0
ENDBLK
  5
718
330
70B
100
AcDbEntity
  8
0
100
AcDbBlockEnd
  0
BLOCK
  5
9DD
330
9DC
100
AcDbEntity
  8
0
100
AcDbBlockBegin
  2
$AUDIT_BAD_BLOCK_RECORD1
 70
     0
 10
0.0
 20
0.0
 30
0.0
  3
$AUDIT_BAD_BLOCK_RECORD1
  1

  0
LWPOLYLINE
  5
8DF
330
9DC
100
AcDbEntity
  8
0
  6
ByBlock
 62
     0
100
AcDbPolyline
 90
        2
 70
     1
 43
0.5
 10
-0.0625
 20
0.0
 42
1.0
 10
0.0625
 20
0.0
 42
1.0
  0
ENDBLK
  5
9DE
330
9DC
100
AcDbEntity
  8
0
100
AcDbBlockEnd
  0
BLOCK
  5
C2C
330
C2B
100
AcDbEntity
  8
0
100
AcDbBlockBegin
  2
*D4
 70
     1
 10
0.0
 20
0.0
 30
0.0
  3
*D4
  1

  0
LINE
  5
C5E
330
C2B
100
AcDbEntity
  8
0
 62
     0
440
 16777216
370
    -2
100
AcDbLine
 10
522.0387944778033
 20
414.8210879897952
 30
0.0
 11
550.3585601518761
 21
414.8210879897952
 31
0.0
  0
LINE
  5
C5F
330
C2B
100
AcDbEntity
  8
0
 62
     0
440
 16777216
370
    -2
100
AcDbLine
 10
522.0387944778033
 20
440.2210879897951
 30
0.0
 11
550.3585601518761
 21
440.2210879897951
 31
0.0
  0
LINE
  5
C60
330
C2B
100
AcDbEntity
  8
0
 62
     0
440
 16777216
370
    -2
100
AcDbLine
 10
539.5585601518761
 20
404.0210879897951
 30
0.0
 11
539.5585601518761
 21
393.2210879897952
 31
0.0
  0
LINE
  5
C61
330
C2B
100
AcDbEntity
  8
0
 62
     0
440
 16777216
370
    -2
100
AcDbLine
 10
539.5585601518761
 20
451.021087989795
 30
0.0
 11
539.5585601518761
 21
461.8210879897951
 31
0.0
  0
SOLID
  5
C62
330
C2B
100
AcDbEntity
  8
0
 62
     0
440
 16777216
100
AcDbTrace
 10
537.7585601518761
 20
404.0210879897951
 30
0.0
 11
541.358560151876
 21
404.0210879897951
 31
0.0
 12
539.5585601518761
 22
414.8210879897952
 32
0.0
 13
539.5585601518761
 23
414.8210879897952
 33
0.0
  0
SOLID
  5
C63
330
C2B
100
AcDbEntity
  8
0
 62
     0
440
 16777216
100
AcDbTrace
 10
537.7585601518761
 20
451.021087989795
 30
0.0
 11
541.358560151876
 21
451.021087989795
 31
0.0
 12
539.5585601518761
 22
440.2210879897951
 32
0.0
 13
539.5585601518761
 23
440.2210879897951
 33
0.0
  0
MTEXT
  5
C64
330
C2B
100
AcDbEntity
  8
0
 62
     0
440
 16777216
100
AcDbMText
 10
539.5585601518759
 20
427.5210879897952
 30
0.0
 40
6.599999999999999
 41
0.0
 46
0.0
 71
     5
 72
     1
  1
\A1;25 MM\P [1.0 IN.]
 73
     1
 44
1.0
  0
POINT
  5
C65
330
C2B
100
AcDbEntity
  8
Defpoints
 62
     0
440
 16777216
100
AcDbPoint
 10
518.2887944778033
 20
414.8210879897952
 30
0.0
  0
POINT
  5
C66
330
C2B
100
AcDbEntity
  8
Defpoints
 62
     0
440
 16777216
100
AcDbPoint
 10
518.2887944778033
 20
440.2210879897951
 30
0.0
  0
POINT
  5
C67
330
C2B
100
AcDbEntity
  8
Defpoints
 62
     0
440
 16777216
100
AcDbPoint
 10
539.5585601518761
 20
440.2210879897951
 30
0.0
  0
ENDBLK
  5
C2D
330
C2B
100
AcDbEntity
  8
0
100
AcDbBlockEnd
  0
BLOCK
  5
C6A
330
C69
100
AcDbEntity
  8
0
100
AcDbBlockBegin
  2
*D5
 70
     1
 10
0.0
 20
0.0
 30
0.0
  3
*D5
  1

  0
LINE
  5
D4F
330
C69
100
AcDbEntity
  8
0
 62
     0
440
 16777216
370
    -2
100
AcDbLine
 10
522.0387944778033
 20
414.8210879897952
 30
0.0
 11
589.3920526975383
 21
414.8210879897952
 31
0.0
  0
LINE
  5
D50
330
C69
100
AcDbEntity
  8
0
 62
     0
440
 16777216
370
    -2
100
AcDbLine
 10
522.0387944778033
 20
454.4557707908425
 30
0.0
 11
589.3920526975383
 21
454.4557707908425
 31
0.0
  0
LINE
  5
D51
330
C69
100
AcDbEntity
  8
0
 62
     0
440
 16777216
370
    -2
100
AcDbLine
 10
578.5920526975384
 20
404.0210879897951
 30
0.0
 11
578.5920526975384
 21
393.2210879897952
 31
0.0
  0
LINE
  5
D52
330
C69
100
AcDbEntity
  8
0
 62
     0
440
 16777216
370
    -2
100
AcDbLine
 10
578.5920526975384
 20
465.2557707908425
 30
0.0
 11
578.5920526975384
 21
476.0557707908425
 31
0.0
  0
SOLID
  5
D53
330
C69
100
AcDbEntity
  8
0
 62
     0
440
 16777216
100
AcDbTrace
 10
576.7920526975384
 20
404.0210879897951
 30
0.0
 11
580.3920526975383
 21
404.0210879897951
 31
0.0
 12
578.5920526975384
 22
414.8210879897952
 32
0.0
 13
578.5920526975384
 23
414.8210879897952
 33
0.0
  0
SOLID
  5
D54
330
C69
100
AcDbEntity
  8
0
 62
     0
440
 16777216
100
AcDbTrace
 10
576.7920526975384
 20
465.2557707908425
 30
0.0
 11
580.3920526975383
 21
465.2557707908425
 31
0.0
 12
578.5920526975384
 22
454.4557707908425
 32
0.0
 13
578.5920526975384
 23
454.4557707908425
 33
0.0
  0
MTEXT
  5
D55
330
C69
100
AcDbEntity
  8
0
 62
     0
440
 16777216
100
AcDbMText
 10
578.5920526975383
 20
434.6384293903189
 30
0.0
 40
6.599999999999999
 41
0.0
 46
0.0
 71
     5
 72
     1
  1
\A1;40 MM\P [1.5 IN.]
 73
     1
 44
1.0
  0
POINT
  5
D56
330
C69
100
AcDbEntity
  8
Defpoints
 62
     0
440
 16777216
100
AcDbPoint
 10
518.2887944778033
 20
414.8210879897952
 30
0.0
  0
POINT
  5
D57
330
C69
100
AcDbEntity
  8
Defpoints
 62
     0
440
 16777216
100
AcDbPoint
 10
518.2887944778033
 20
454.4557707908425
 30
0.0
  0
POINT
  5
D58
330
C69
100
AcDbEntity
  8
Defpoints
 62
     0
440
 16777216
100
AcDbPoint
 10
578.5920526975384
 20
454.4557707908425
 30
0.0
  0
ENDBLK
  5
C6B
330
C69
100
AcDbEntity
  8
0
100
AcDbBlockEnd
  0
BLOCK
  5
C9D
330
C9C
100
AcDbEntity
  8
0
100
AcDbBlockBegin
  2
*D6
 70
     1
 10
0.0
 20
0.0
 30
0.0
  3
*D6
  1

  0
LINE
  5
D1B
330
C9C
100
AcDbEntity
  8
0
 62
     0
440
 16777216
370
    -2
100
AcDbLine
 10
492.8887944778033
 20
458.2057707908425
 30
0.0
 11
492.8887944778033
 21
511.6554999396281
 31
0.0
  0
LINE
  5
D1C
330
C9C
100
AcDbEntity
  8
0
 62
     0
440
 16777216
370
    -2
100
AcDbLine
 10
518.2887944778033
 20
458.2057707908425
 30
0.0
 11
518.2887944778033
 21
511.6554999396281
 31
0.0
  0
LINE
  5
D1D
330
C9C
100
AcDbEntity
  8
0
 62
     0
440
 16777216
370
    -2
100
AcDbLine
 10
482.0887944778032
 20
500.855499939628
 30
0.0
 11
471.2887944778032
 21
500.855499939628
 31
0.0
  0
LINE
  5
D1E
330
C9C
100
AcDbEntity
  8
0
 62
     0
440
 16777216
370
    -2
100
AcDbLine
 10
529.0887944778033
 20
500.855499939628
 30
0.0
 11
539.8887944778033
 21
500.855499939628
 31
0.0
  0
SOLID
  5
D1F
330
C9C
100
AcDbEntity
  8
0
 62
     0
440
 16777216
100
AcDbTrace
 10
482.0887944778032
 20
502.6554999396281
 30
0.0
 11
482.0887944778032
 21
499.055499939628
 31
0.0
 12
492.8887944778033
 22
500.855499939628
 32
0.0
 13
492.8887944778033
 23
500.855499939628
 33
0.0
  0
SOLID
  5
D20
330
C9C
100
AcDbEntity
  8
0
 62
     0
440
 16777216
100
AcDbTrace
 10
529.0887944778033
 20
502.6554999396281
 30
0.0
 11
529.0887944778033
 21
499.055499939628
 31
0.0
 12
518.2887944778033
 22
500.855499939628
 32
0.0
 13
518.2887944778033
 23
500.855499939628
 33
0.0
  0
MTEXT
  5
D21
330
C9C
100
AcDbEntity
  8
0
 62
     0
440
 16777216
100
AcDbMText
 10
562.4123279020871
 20
500.855499939628
 30
0.0
 40
6.599999999999999
 41
0.0
 46
0.0
 71
     5
 72
     1
  1
\A1;25 MM\P [1.0 IN.]
 73
     1
 44
1.0
  0
POINT
  5
D22
330
C9C
100
AcDbEntity
  8
Defpoints
 62
     0
440
 16777216
100
AcDbPoint
 10
492.8887944778033
 20
454.4557707908425
 30
0.0
  0
POINT
  5
D23
330
C9C
100
AcDbEntity
  8
Defpoints
 62
     0
440
 16777216
100
AcDbPoint
 10
518.2887944778033
 20
454.4557707908425
 30
0.0
  0
POINT
  5
D24
330
C9C
100
AcDbEntity
  8
Defpoints
 62
     0
440
 16777216
100
AcDbPoint
 10
518.2887944778033
 20
500.855499939628
 30
0.0
  0
ENDBLK
  5
C9E
330
C9C
100
AcDbEntity
  8
0
100
AcDbBlockEnd
  0
ENDSEC
  0
SECTION
  2
ENTITIES
  0
MTEXT
  5
1A5
330
1F
100
AcDbEntity
  8
0
100
AcDbMText
 10
585.4772876453869
 20
219.9369134370018
 30
0.0
 40
0.18
 41
0.0
 46
0.0
 71
     4
 72
     1
  1
\A1;
 73
     1
 44
1.0
  0
MTEXT
  5
2B7
330
1F
100
AcDbEntity
  8
0
100
AcDbMText
 10
585.4772876453869
 20
171.3704685515999
 30
0.0
 40
0.18
 41
0.0
 46
0.0
 71
     4
 72
     1
  1
\A1;
 73
     1
 44
1.0
  0
LINE
  5
2B8
330
1F
100
AcDbEntity
  8
0
100
AcDbLine
 10
492.8887944778033
 20
414.8210879897952
 30
0.0
 11
492.8887944778033
 21
454.4557707908425
 31
0.0
  0
LINE
  5
2B9
102
{ACAD_REACTORS
330
C47
330
C85
102
}
330
1F
100
AcDbEntity
  8
0
100
AcDbLine
 10
518.2887944778033
 20
454.4557707908425
 30
0.0
 11
518.2887944778033
 21
414.8210879897952
 31
0.0
  0
LINE
  5
2BE
330
1F
100
AcDbEntity
  8
0
100
AcDbLine
 10
724.8887944777512
 20
460.4398204901076
 30
0.0
 11
724.8887944778034
 21
401.861958744761
 31
0.0
  0
LINE
  5
2BF
330
1F
100
AcDbEntity
  8
0
100
AcDbLine
 10
724.8887944777512
 20
508.5174566950069
 30
0.0
 11
724.8887944777509
 21
571.3409818260361
 31
0.0
  0
LINE
  5
2C0
330
1F
100
AcDbEntity
  8
0
100
AcDbLine
 10
286.0065178746358
 20
508.5174566950073
 30
0.0
 11
286.0065178746353
 21
571.3409818260362
 31
0.0
  0
LINE
  5
2C1
330
1F
100
AcDbEntity
  8
0
100
AcDbLine
 10
286.0065178746358
 20
460.439820490108
 30
0.0
 11
286.006517874636
 21
401.8619587447584
 31
0.0
  0
LINE
  5
2C2
330
1F
100
AcDbEntity
  8
0
100
AcDbLine
 10
286.0065178746355
 20
554.5210879897966
 30
0.0
 11
724.8887944777512
 21
554.5210879897957
 31
0.0
  0
INSERT
  5
2C3
330
1F
100
AcDbEntity
  8
0
100
AcDbBlockReference
  2
joint line
 10
286.0065178746358
 20
484.4786385925577
 30
0.0
 41
-0.6000000000000228
 42
0.6000000000000228
 43
0.6
 50
90.0
  0
POINT
  5
32D
330
1F
100
AcDbEntity
  8
0
100
AcDbPoint
 10
492.8887944778033
 20
427.5210879897952
 30
0.0
 50
180.0
  0
POINT
  5
32E
330
1F
100
AcDbEntity
  8
0
100
AcDbPoint
 10
492.8887944778032
 20
440.2210879897951
 30
0.0
 50
180.0
  0
LINE
  5
32F
102
{ACAD_REACTORS
330
C47
102
}
330
1F
100
AcDbEntity
  8
0
100
AcDbLine
 10
492.8887944778032
 20
440.2210879897951
 30
0.0
 11
518.2887944778033
 21
440.2210879897951
 31
0.0
  0
LINE
  5
34A
330
1F
100
AcDbEntity
  8
0
100
AcDbLine
 10
505.5887944778033
 20
454.4557707908425
 30
0.0
 11
505.5887944778032
 21
554.5210879897951
 31
0.0
  0
MTEXT
  5
40E
102
{ACAD_XDICTIONARY
360
DAC
102
}
330
1F
100
AcDbEntity
  8
0
100
AcDbMText
 10
296.2714735145726
 20
305.2127415184808
 30
0.0
 40
10.8
 41
364.3202953280154
 46
29.56430539759992
 71
     1
 72
     5
  1
\pi67.504;LEAK OR JOINT REPAIR - WALL TO WALL\P\pi187.04;{\H0.55555x;REFER TO APPLICATION INSTRUCTION 5.12}
 73
     1
 44
1.0
  0
LINE
  5
473
330
1F
100
AcDbEntity
  8
0
100
AcDbLine
 10
505.2124256735798
 20
414.821087989795
 30
0.0
 11
505.5887944778033
 21
414.8210879897952
 31
0.0
  0
LINE
  5
59A
330
1F
100
AcDbEntity
  8
0
100
AcDbLine
 10
657.9887944778033
 20
414.8210879896955
 30
0.0
 11
724.8887944778033
 21
414.8210879897205
 31
0.0
  0
LINE
  5
59B
330
1F
100
AcDbEntity
  8
0
100
AcDbLine
 10
352.8124256735799
 20
414.821087989795
 30
0.0
 11
286.0065178746358
 21
414.8210879897949
 31
0.0
  0
MTEXT
  5
5BD
330
1F
100
AcDbEntity
  8
0
100
AcDbMText
 10
736.9812382397242
 20
626.1259165009345
 30
0.0
 40
10.8
 41
19.64416701626453
 46
0.0
 71
     1
 72
     1
  1
\A1;
 73
     1
 44
1.0
  0
MTEXT
  5
5C0
330
1F
100
AcDbEntity
  8
0
100
AcDbMText
 10
276.9335483668134
 20
615.4201641830313
 30
0.0
 40
10.8
 41
19.64416701626453
 46
0.0
 71
     3
 72
     1
  1
\A1;
 73
     1
 44
1.0
  0
LINE
  5
60E
330
1F
100
AcDbEntity
  8
0
100
AcDbLine
 10
657.9887944778033
 20
414.8210879897952
 30
0.0
 11
352.8124256735797
 21
414.8210879897952
 31
0.0
  0
LINE
  5
6D0
330
1F
100
AcDbEntity
  8
0
100
AcDbLine
 10
518.2377442690185
 20
414.8210879897952
 30
0.0
 11
492.8887944778033
 21
414.8210879897951
 31
0.0
  0
DIMENSION
  5
70A
330
1F
100
AcDbEntity
  8
0
100
AcDbDimension
280
     0
  2
*D2
 10
658.1019754435364
 20
371.3203243169503
 30
0.0
 11
581.9486454519078
 21
371.3203243169503
 31
0.0
 70
    32
 71
     5
 42
152.3066599832572
 73
     0
 74
     0
 75
     0
  3
default
100
AcDbAlignedDimension
 13
505.7953154602792
 23
411.5718271284354
 33
0.0
 14
658.1019754435364
 24
411.5718271284354
 34
0.0
100
AcDbRotatedDimension
1001
ACAD
1000
DSTYLE
1002
{
1070
   140
1040
0.11
1002
}
  0
HATCH
  5
A11
330
1F
100
AcDbEntity
  8
0
100
AcDbHatch
 10
0.0
 20
0.0
 30
0.0
210
0.0
220
0.0
230
1.0
  2
ANSI38
 70
     0
 71
     0
 91
        1
 92
        7
 72
     0
 73
     1
 93
        4
 10
492.8887944778033
 20
414.8210879897952
 10
518.2887944778033
 20
414.8210879897952
 10
518.2887944778033
 20
440.2210879897951
 10
492.8887944778033
 20
440.2210879897951
 97
        0
 75
     0
 76
     1
 52
180.0
 41
30.0
 77
     0
 78
     2
 53
225.0
 43
1000.112744269018
 44
891.7905424280553
 45
2.651650429449552
 46
-2.651650429449553
 79
     0
 53
315.0
 43
1000.112744269018
 44
891.7905424280553
 45
7.954951288348659
 46
-2.651650429449554
 79
     2
 49
9.375
 49
-5.625
 47
0.1582420025170541
 98
        1
 10
502.1819489285271
 20
429.8033799759924
1001
ACAD
1010
0.0
1020
0.0
1030
0.0
  0
LINE
  5
AC1
102
{ACAD_REACTORS
330
C85
330
CB6
102
}
330
1F
100
AcDbEntity
  8
0
100
AcDbLine
 10
518.2887944778033
 20
454.4557707908425
 30
0.0
 11
492.8887944778033
 21
454.4557707908425
 31
0.0
  0
HATCH
  5
ACA
330
1F
100
AcDbEntity
  8
0
100
AcDbHatch
 10
0.0
 20
0.0
 30
0.0
210
0.0
220
0.0
230
1.0
  2
SACNCR
 70
     0
 71
     0
 91
        1
 92
        7
 72
     0
 73
     1
 93
        4
 10
492.8887944778033
 20
440.2210879897951
 10
518.2887944778033
 20
440.2210879897951
 10
518.2887944778033
 20
454.4557707908425
 10
492.8887944778033
 20
454.4557707908425
 97
        0
 75
     0
 76
     1
 52
0.0
 41
1.0
 77
     0
 78
     2
 53
45.0
 43
0.0
 44
0.0
 45
-0.0662912607362388
 46
0.0662912607362388
 79
     0
 53
45.0
 43
0.066291261
 44
0.0
 45
-0.0662912607362388
 46
0.0662912607362388
 79
     2
 49
0.0
 49
-0.09375
 47
0.0941562869253233
 98
        1
 10
501.5019899237413
 20
448.0362756066379
1001
ACAD
1010
0.0
1020
0.0
1030
0.0
  0
LINE
  5
AD6
330
1F
100
AcDbEntity
  8
0
100
AcDbLine
 10
657.9887944778033
 20
414.8210879896955
 30
0.0
 11
657.9887944778033
 21
411.8210879896956
 31
0.0
  0
LINE
  5
AD7
330
1F
100
AcDbEntity
  8
0
100
AcDbLine
 10
657.9887944778033
 20
411.8210879896956
 30
0.0
 11
353.9887944778033
 21
411.8210879896956
 31
0.0
  0
LINE
  5
AD8
330
1F
100
AcDbEntity
  8
0
100
AcDbLine
 10
353.9887944778033
 20
411.8210879896956
 30
0.0
 11
353.9887944778033
 21
414.8210879897953
 31
0.0
  0
HATCH
  5
AE5
330
1F
100
AcDbEntity
  8
0
100
AcDbHatch
 10
0.0
 20
0.0
 30
0.0
210
0.0
220
0.0
230
1.0
  2
NET3
 70
     0
 71
     0
 91
        1
 92
        7
 72
     0
 73
     1
 93
        4
 10
353.9887944778033
 20
411.8210879896956
 10
657.9887944778033
 20
411.8210879896956
 10
657.9887944778033
 20
414.8210879897951
 10
353.9887944778034
 20
414.8210879897954
 97
        0
 75
     0
 76
     1
 52
180.0
 41
30.0
 77
     0
 78
     3
 53
180.0
 43
1000.112744269018
 44
891.7905424280553
 45
-0.0000000000000005
 46
-3.75
 79
     0
 53
240.0
 43
1000.112744269018
 44
891.7905424280553
 45
3.247595264191644
 46
-1.875
 79
     0
 53
300.0
 43
1000.112744269018
 44
891.7905424280553
 45
3.247595264191645
 46
1.874999999999998
 79
     0
 47
0.3315720794073445
 98
        2
 10
517.7802250330824
 20
412.7365697784162
 10
449.128459745093
 20
412.4049992952423
1001
ACAD
1010
0.0
1020
0.0
1030
0.0
  0
INSERT
  5
AEE
330
1F
100
AcDbEntity
  8
0
100
AcDbBlockReference
  2
joint line
 10
1461.364417406211
 20
407.3119038354979
 30
0.0
 41
-0.5999999999999944
 42
0.5999999999999944
 43
0.6
 50
270.0
  0
INSERT
  5
AEF
330
1F
100
AcDbEntity
  8
0
100
AcDbBlockReference
  2
joint line
 10
724.8887944777512
 20
484.4786385925572
 30
0.0
 41
-0.6000000000000228
 42
0.6000000000000228
 43
0.6
 50
90.0
  0
HATCH
  5
B8F
330
1F
100
AcDbEntity
  8
0
100
AcDbHatch
 10
0.0
 20
0.0
 30
0.0
210
0.0
220
0.0
230
1.0
  2
AR-CONC
 70
     0
 71
     0
 91
        3
 92
        7
 72
     0
 73
     1
 93
       14
 10
505.5887944778033
 20
454.4557707908425
 10
518.2887944778033
 20
454.4557707908426
 10
518.2887944778033
 20
414.8210879897951
 10
657.9887944778033
 20
414.8210879897952
 10
724.8887944777918
 20
414.8210879897205
 10
724.8887944777512
 20
460.4398204901076
 10
724.8887944777512
 20
475.6798204901076
 10
709.6487944777514
 20
484.4786385925573
 10
724.8887944777512
 20
484.4786385925572
 10
740.1287944777512
 20
484.4786385925573
 10
724.8887944777512
 20
493.2774566950071
 10
724.8887944777512
 20
508.5174566950069
 10
724.8887944777512
 20
554.5210879897957
 10
505.5887944778032
 20
554.5210879897959
 97
        0
 92
       24
 93
        4
 72
     1
 10
600.9703600635576
 20
419.6942875624547
 11
563.4232932149902
 21
419.6942875624547
 72
     1
 10
563.4232932149902
 20
419.6942875624547
 11
563.4232932149902
 21
442.4806449976526
 72
     1
 10
563.4232932149902
 20
442.4806449976526
 11
600.9703600635576
 21
442.4806449976526
 72
     1
 10
600.9703600635576
 20
442.4806449976526
 11
600.9703600635576
 21
419.6942875624547
 97
        0
 92
       24
 93
        4
 72
     1
 10
561.2201755416148
 20
416.1279092721962
 11
523.6731086930473
 21
416.1279092721962
 72
     1
 10
523.6731086930473
 20
416.1279092721962
 11
523.6731086930473
 21
438.914266707394
 72
     1
 10
523.6731086930473
 20
438.914266707394
 11
561.2201755416148
 21
438.914266707394
 72
     1
 10
561.2201755416148
 20
438.914266707394
 11
561.2201755416148
 21
416.1279092721962
 97
        0
 75
     0
 76
     1
 52
180.0
 41
6.0
 77
     0
 78
    13
 53
230.0
 43
1000.112744269018
 44
891.7905424280553
 45
-43.0356109560452
 46
3.765128098955711
 79
     2
 49
4.5
 49
-49.5
 53
175.0
 43
1000.112744269018
 44
891.7905424280553
 45
8.325080016779994
 46
-45.1315280220007
 79
     2
 49
3.599999999999999
 49
-39.59999999999999
 53
280.4513999999999
 43
996.5264434690187
 44
892.1043028280552
 45
-34.7105629028413
 46
-41.36637252365721
 79
     2
 49
3.824411399999999
 49
-42.06852671999997
 53
226.1842
 43
1000.112744269018
 44
879.7905424280552
 45
-64.03446291753866
 46
9.931140859741091
 79
     2
 49
6.75
 49
-74.25
 53
276.6356
 43
994.7765395690186
 44
880.6181408480552
 45
-56.0797623329222
 46
-58.4470722540265
 79
     2
 49
5.736617279999997
 49
-63.10277999999997
 53
171.1842
 43
1000.112744269018
 44
879.7905424280552
 45
-56.07971670801763
 46
-58.44711605551946
 79
     2
 49
5.4
 49
-59.40000000000001
 53
201.0
 43
994.1127442690186
 44
882.7905424280553
 45
-35.8144231271077
 46
24.15713343992033
 79
     2
 49
4.499999999999999
 49
-49.49999999999999
 53
146.0
 43
994.1127442690186
 44
882.7905424280553
 45
-14.59891991529491
 46
-43.50900270281118
 79
     2
 49
3.599999999999999
 49
-39.59999999999999
 53
251.4514000000001
 43
991.1282102890186
 44
884.8036387880553
 45
-50.4133577148894
 46
-19.35182980259714
 79
     2
 49
3.824411399999999
 49
-42.06852671999998
 53
217.5
 43
1000.112744269018
 44
891.7905424280553
 45
-0.7295913190374426
 46
-19.97363122987869
 79
     6
 49
0.0
 49
-39.12
 49
0.0
 49
-40.2
 49
0.0
 49
-39.75
 53
187.5
 43
1000.112744269018
 44
891.7905424280553
 45
-15.78417224652892
 46
-23.66470271294161
 79
     6
 49
0.0
 49
-22.91999999999999
 49
0.0
 49
-38.21999999999999
 49
0.0
 49
-15.14999999999999
 53
147.4999999999999
 43
1013.492744269018
 44
891.7905424280553
 45
-32.02934617034455
 46
1.353292304062791
 79
     6
 49
0.0
 49
-15.0
 49
0.0
 49
-46.79999999999999
 49
0.0
 49
-62.09999999999999
 53
137.5
 43
1019.492744269018
 44
891.7905424280553
 45
-34.99117016054318
 46
-6.006298939939053
 79
     6
 49
0.0
 49
-19.5
 49
0.0
 49
-31.08
 49
0.0
 49
-44.09999999999999
 47
0.5618921825572386
 98
        1
 10
640.3555615590307
 20
482.697596071637
1001
ACAD
1010
0.0
1020
0.0
1030
0.0
  0
HATCH
  5
BA4
330
1F
100
AcDbEntity
  8
0
100
AcDbHatch
 10
0.0
 20
0.0
 30
0.0
210
0.0
220
0.0
230
1.0
  2
AR-CONC
 70
     0
 71
     0
 91
        1
 92
        7
 72
     0
 73
     1
 93
       14
 10
286.0065178746357
 20
493.2774566950075
 10
301.2465178746358
 20
484.4786385925577
 10
286.0065178746358
 20
484.4786385925577
 10
270.766517874636
 20
484.4786385925577
 10
286.0065178746358
 20
475.6798204901079
 10
286.0065178746358
 20
460.439820490108
 10
286.0065178746359
 20
414.8210879897948
 10
352.8124256735799
 20
414.821087989795
 10
492.8887944778033
 20
414.8210879897952
 10
492.8887944778033
 20
454.4557707908425
 10
505.5887944778032
 20
454.4557707908425
 10
505.5887944778032
 20
554.5210879897961
 10
286.0065178746355
 20
554.5210879897966
 10
286.0065178746358
 20
508.5174566950073
 97
        0
 75
     0
 76
     1
 52
180.0
 41
6.0
 77
     0
 78
    13
 53
230.0
 43
1000.112744269018
 44
891.7905424280553
 45
-43.0356109560452
 46
3.765128098955711
 79
     2
 49
4.5
 49
-49.5
 53
175.0
 43
1000.112744269018
 44
891.7905424280553
 45
8.325080016779994
 46
-45.1315280220007
 79
     2
 49
3.599999999999999
 49
-39.59999999999999
 53
280.4513999999999
 43
996.5264434690187
 44
892.1043028280552
 45
-34.7105629028413
 46
-41.36637252365721
 79
     2
 49
3.824411399999999
 49
-42.06852671999997
 53
226.1842
 43
1000.112744269018
 44
879.7905424280552
 45
-64.03446291753866
 46
9.931140859741091
 79
     2
 49
6.75
 49
-74.25
 53
276.6356
 43
994.7765395690186
 44
880.6181408480552
 45
-56.0797623329222
 46
-58.4470722540265
 79
     2
 49
5.736617279999997
 49
-63.10277999999997
 53
171.1842
 43
1000.112744269018
 44
879.7905424280552
 45
-56.07971670801763
 46
-58.44711605551946
 79
     2
 49
5.4
 49
-59.40000000000001
 53
201.0
 43
994.1127442690186
 44
882.7905424280553
 45
-35.8144231271077
 46
24.15713343992033
 79
     2
 49
4.499999999999999
 49
-49.49999999999999
 53
146.0
 43
994.1127442690186
 44
882.7905424280553
 45
-14.59891991529491
 46
-43.50900270281118
 79
     2
 49
3.599999999999999
 49
-39.59999999999999
 53
251.4514000000001
 43
991.1282102890186
 44
884.8036387880553
 45
-50.4133577148894
 46
-19.35182980259714
 79
     2
 49
3.824411399999999
 49
-42.06852671999998
 53
217.5
 43
1000.112744269018
 44
891.7905424280553
 45
-0.7295913190374426
 46
-19.97363122987869
 79
     6
 49
0.0
 49
-39.12
 49
0.0
 49
-40.2
 49
0.0
 49
-39.75
 53
187.5
 43
1000.112744269018
 44
891.7905424280553
 45
-15.78417224652892
 46
-23.66470271294161
 79
     6
 49
0.0
 49
-22.91999999999999
 49
0.0
 49
-38.21999999999999
 49
0.0
 49
-15.14999999999999
 53
147.4999999999999
 43
1013.492744269018
 44
891.7905424280553
 45
-32.02934617034455
 46
1.353292304062791
 79
     6
 49
0.0
 49
-15.0
 49
0.0
 49
-46.79999999999999
 49
0.0
 49
-62.09999999999999
 53
137.5
 43
1019.492744269018
 44
891.7905424280553
 45
-34.99117016054318
 46
-6.006298939939053
 79
     6
 49
0.0
 49
-19.5
 49
0.0
 49
-31.08
 49
0.0
 49
-44.09999999999999
 47
0.5618921825572386
 98
        1
 10
360.969677489416
 20
504.0494995806855
1001
ACAD
1010
0.0
1020
0.0
1030
0.0
  0
LEADER
  5
C1B
330
1F
100
AcDbEntity
  8
0
100
AcDbLeader
  3
Standard
 73
     0
 75
     1
 40
17.97271487039563
 41
90.61391541609822
 76
     3
 10
444.6399714729459
 20
409.7261980688036
 30
0.0
 10
423.55763417342
 20
379.8612868300461
 30
0.0
 10
412.7576341734201
 20
379.8612868300461
 30
0.0
340
C1C
1001
ACAD
1000
DSTYLE
1002
{
1070
     3
1000
 MM\X
1070
     4
1000
 IN.
1070
    40
1040
60.0
1070
   143
1040
0.0393700787401575
1070
   148
1040
1.0
1070
   170
1070
     1
1070
   171
1070
     1
1070
   271
1070
     0
1070
   272
1070
     0
1070
   274
1070
     1
1002
}
  0
MTEXT
  5
C1C
102
{ACAD_REACTORS
330
C1B
102
}
330
1F
100
AcDbEntity
  8
0
100
AcDbMText
 10
407.3576341734201
 20
379.8612868300461
 30
0.0
 40
6.0
 41
0.0
 46
0.0
 71
     6
 72
     1
  1
\A1;KRYSTOL T1 COATING\P0.8 kg/m{\H0.7x;\S2^ ;} (1.5 lbs./yd{\H0.7x;\S2^ ;})
 73
     1
 44
1.0
  0
LEADER
  5
C26
330
1F
100
AcDbEntity
  8
0
100
AcDbLeader
  3
Standard
 73
     0
 75
     1
 40
6.208731241473397
 41
63.14324693042292
 76
     3
 10
491.3665960761468
 20
445.7087642158314
 30
0.0
 10
434.6450318661966
 20
357.4125554550549
 30
0.0
 10
423.8450318661965
 20
357.4125554550549
 30
0.0
340
C27
1001
ACAD
1000
DSTYLE
1002
{
1070
     3
1000
 MM\X
1070
     4
1000
 IN.
1070
    40
1040
60.0
1070
   143
1040
0.0393700787401575
1070
   148
1040
1.0
1070
   170
1070
     1
1070
   171
1070
     1
1070
   271
1070
     0
1070
   272
1070
     0
1070
   274
1070
     1
1002
}
  0
MTEXT
  5
C27
102
{ACAD_REACTORS
330
C26
102
}
330
1F
100
AcDbEntity
  8
0
100
AcDbMText
 10
418.4450318661966
 20
357.4125554550549
 30
0.0
 40
6.0
 41
0.0
 46
0.0
 71
     6
 72
     1
  1
KRYSTOL PLUG
 73
     1
 44
1.0
  0
LEADER
  5
C28
330
1F
100
AcDbEntity
  8
0
100
AcDbLeader
  3
Standard
 73
     0
 75
     1
 40
6.208731241473397
 41
104.4761255115961
 76
     3
 10
500.170585299339
 20
415.6983957475902
 30
0.0
 10
447.095053162088
 20
333.1162825260376
 30
0.0
 10
436.295053162088
 20
333.1162825260376
 30
0.0
340
C29
1001
ACAD
1000
DSTYLE
1002
{
1070
     3
1000
 MM\X
1070
     4
1000
 IN.
1070
    40
1040
60.0
1070
   143
1040
0.0393700787401575
1070
   148
1040
1.0
1070
   170
1070
     1
1070
   171
1070
     1
1070
   271
1070
     0
1070
   272
1070
     0
1070
   274
1070
     1
1002
}
  0
MTEXT
  5
C29
102
{ACAD_REACTORS
330
C28
102
}
330
1F
100
AcDbEntity
  8
0
100
AcDbMText
 10
430.895053162088
 20
333.1162825260376
 30
0.0
 40
6.0
 41
0.0
 46
0.0
 71
     6
 72
     1
  1
KRYSTOL REPAIR GROUT
 73
     1
 44
1.0
  0
DIMENSION
  5
C2A
102
{ACAD_XDICTIONARY
360
C3A
102
}
102
{ACAD_REACTORS
330
C47
102
}
330
1F
100
AcDbEntity
  8
0
100
AcDbDimension
280
     0
  2
*D4
 10
539.5585601518761
 20
440.2210879897951
 30
0.0
 11
539.5585601518759
 21
427.5210879897952
 31
0.0
 70
   160
 71
     5
 42
25.39999999999987
 73
     0
 74
     0
 75
     0
  3
Standard
100
AcDbAlignedDimension
 13
518.2887944778033
 23
414.8210879897952
 33
0.0
 14
518.2887944778033
 24
440.2210879897951
 34
0.0
 50
90.0
100
AcDbRotatedDimension
1001
ACAD
1000
DSTYLE
1002
{
1070
   140
1040
0.11
1070
     3
1000
 MM\X
1070
     4
1000
 IN.
1070
    40
1040
60.0
1070
   143
1040
0.0393700787401575
1070
   148
1040
1.0
1070
   170
1070
     1
1070
   171
1070
     1
1070
   271
1070
     0
1070
   272
1070
     0
1070
   274
1070
     1
1002
}
  0
DIMENSION
  5
C68
102
{ACAD_XDICTIONARY
360
C78
102
}
102
{ACAD_REACTORS
330
C85
102
}
330
1F
100
AcDbEntity
  8
0
100
AcDbDimension
280
     0
  2
*D5
 10
578.5920526975384
 20
454.4557707908425
 30
0.0
 11
578.5920526975383
 21
434.6384293903189
 31
0.0
 70
   160
 71
     5
 42
39.63468280104729
 73
     0
 74
     0
 75
     0
  3
Standard
100
AcDbAlignedDimension
 13
518.2887944778033
 23
414.8210879897952
 33
0.0
 14
518.2887944778033
 24
454.4557707908425
 34
0.0
 50
90.0
100
AcDbRotatedDimension
1001
ACAD
1000
DSTYLE
1002
{
1070
   140
1040
0.11
1070
     3
1000
 MM\X
1070
     4
1000
 IN.
1070
    40
1040
60.0
1070
   143
1040
0.0393700787401575
1070
   148
1040
0.5
1070
   170
1070
     1
1070
   171
1070
     1
1070
   271
1070
     0
1070
   272
1070
     0
1070
   274
1070
     1
1002
}
  0
DIMENSION
  5
C9B
102
{ACAD_XDICTIONARY
360
CAA
102
}
102
{ACAD_REACTORS
330
CB6
102
}
330
1F
100
AcDbEntity
  8
0
100
AcDbDimension
280
     0
  2
*D6
 10
518.2887944778033
 20
500.855499939628
 30
0.0
 11
562.4123279020871
 21
500.855499939628
 31
0.0
 70
   160
 71
     5
 42
25.40000000000004
 73
     0
 74
     0
 75
     0
  3
Standard
100
AcDbAlignedDimension
 13
492.8887944778033
 23
454.4557707908425
 33
0.0
 14
518.2887944778033
 24
454.4557707908425
 34
0.0
100
AcDbRotatedDimension
1001
ACAD
1000
DSTYLE
1002
{
1070
   140
1040
0.11
1070
     3
1000
 MM\X
1070
     4
1000
 IN.
1070
    40
1040
60.0
1070
   143
1040
0.0393700787401575
1070
   148
1040
1.0
1070
   170
1070
     1
1070
   171
1070
     1
1070
   271
1070
     0
1070
   272
1070
     0
1070
   274
1070
     1
1002
}
  0
VIEWPORT
  5
80D
102
{ACAD_XDICTIONARY
360
80E
102
}
330
5D
100
AcDbEntity
 67
     1
  8
0
100
AcDbViewport
 10
6.14195868264413
 20
4.840532400565511
 30
0.0
 40
20.72695622029749
 41
11.65995842255638
 68
     1
 69
     1
 12
6.14195868264413
 22
4.840532400565511
 13
0.0
 23
0.0
 14
0.5
 24
0.5
 15
0.5
 25
0.5
 16
0.0
 26
0.0
 36
1.0
 17
0.0
 27
0.0
 37
0.0
 42
50.0
 43
0.0
 44
0.0
 45
11.65995842255638
 50
0.0
 51
0.0
 72
  1000
 90
   819232
  1

281
     0
 71
     1
 74
     0
110
0.0
120
0.0
130
0.0
111
1.0
121
0.0
131
0.0
112
0.0
122
1.0
132
0.0
 79
     0
146
0.0
170
     0
 61
     5
348
783
292
     1
282
     1
141
0.0
142
0.0
 63
   250
421
  3355443
  0
VIEWPORT
  5
812
102
{ACAD_XDICTIONARY
360
813
102
}
330
5D
100
AcDbEntity
 67
     1
  8
0
100
AcDbViewport
 10
5.26479826831828
 20
4.007395455853448
 30
0.0
 40
11.20254889926892
 41
8.638012943452267
 68
     2
 69
     2
 12
495.5797794919782
 22
436.8899072670004
 13
0.0
 23
0.0
 14
0.5
 24
0.5
 15
6.0
 25
6.0
 16
0.0
 26
0.0
 36
1.0
 17
0.0
 27
0.0
 37
0.0
 42
50.0
 43
0.0
 44
0.0
 45
471.0633653224999
 50
0.0
 51
0.0
 72
  1000
 90
   819296
  1

281
     0
 71
     1
 74
     0
110
0.0
120
0.0
130
0.0
111
1.0
121
0.0
131
0.0
112
0.0
122
1.0
132
0.0
 79
     0
146
0.0
170
     0
 61
     5
348
783
292
     1
282
     1
141
0.0
142
0.0
 63
   250
421
  3355443
  0
ENDSEC
  0
SECTION
  2
OBJECTS
  0
DICTIONARY
  5
C
330
0
100
AcDbDictionary
281
     1
  3
ACAD_CIP_PREVIOUS_PRODUCT_INFO
350
DC4
  3
ACAD_COLOR
350
73
  3
ACAD_DETAILVIEWSTYLE
350
DBC
  3
ACAD_GROUP
350
D
  3
ACAD_LAYOUT
350
1A
  3
ACAD_MATERIAL
350
72
  3
ACAD_MLEADERSTYLE
350
7B2
  3
ACAD_MLINESTYLE
350
17
  3
ACAD_PLOTSETTINGS
350
19
  3
ACAD_PLOTSTYLENAME
350
E
  3
ACAD_SCALELIST
350
790
  3
ACAD_SECTIONVIEWSTYLE
350
DBA
  3
ACAD_TABLESTYLE
350
78E
  3
ACAD_VISUALSTYLE
350
77D
  3
AcadDim
350
5C8
  3
ACDB_RECOMPOSE_DATA
350
E38
  3
AcDbVariableDictionary
350
66
  0
DICTIONARY
  5
82B
330
2
100
AcDbDictionary
280
     1
281
     1
  3
ACAD_LAYERSTATES
360
82C
  0
DICTIONARY
  5
815
330
10
100
AcDbDictionary
280
     1
281
     1
  3
ADSK_XREC_LAYER_RECONCILED
360
816
  0
DICTIONARY
  5
A12
330
1F
100
AcDbDictionary
280
     1
281
     1
  3
ACAD_SORTENTS
360
A13
  0
DICTIONARY
  5
137
330
135
100
AcDbDictionary
280
     1
281
     1
  0
DICTIONARY
  5
DAC
330
40E
100
AcDbDictionary
280
     1
281
     1
  3
ACAD_MTEXT_2008_RT
360
E34
  0
DICTIONARY
  5
C3A
330
C2A
100
AcDbDictionary
280
     1
281
     1
  3
ACAD_DIMASSOC
360
C47
  0
DICTIONARY
  5
C78
330
C68
100
AcDbDictionary
280
     1
281
     1
  3
ACAD_DIMASSOC
360
C85
  0
DICTIONARY
  5
CAA
330
C9B
100
AcDbDictionary
280
     1
281
     1
  3
ACAD_DIMASSOC
360
CB6
  0
DICTIONARY
  5
80E
330
80D
100
AcDbDictionary
280
     1
281
     1
  3
ASDK_XREC_ANNOTATION_SCALE_INFO
360
80F
  0
DICTIONARY
  5
813
330
812
100
AcDbDictionary
280
     1
281
     1
  3
ASDK_XREC_ANNOTATION_SCALE_INFO
360
814
  0
XRECORD
  5
DC4
102
{ACAD_REACTORS
330
C
102
}
330
C
100
AcDbXrecord
280
     1
300
ACD
300
2014
300
ACD_F_S
  0
DICTIONARY
  5
73
102
{ACAD_REACTORS
330
C
102
}
330
C
100
AcDbDictionary
281
     1
  0
DICTIONARY
  5
DBC
102
{ACAD_REACTORS
330
C
102
}
330
C
100
AcDbDictionary
281
     1
  3
Imperial24
350
DBD
  0
DICTIONARY
  5
D
102
{ACAD_REACTORS
330
C
102
}
330
C
100
AcDbDictionary
281
     1
  0
DICTIONARY
  5
1A
102
{ACAD_REACTORS
330
C
102
}
330
C
100
AcDbDictionary
281
     1
  3
Layout1
350
59
  3
Layout2
350
5E
  3
Model
350
22
  0
DICTIONARY
  5
72
102
{ACAD_REACTORS
330
C
102
}
330
C
100
AcDbDictionary
281
     1
  3
ByBlock
350
76D
  3
ByLayer
350
765
  3
Global
350
775
  0
DICTIONARY
  5
7B2
102
{ACAD_REACTORS
330
C
102
}
330
C
100
AcDbDictionary
281
     1
  3
Standard
350
7B3
  0
DICTIONARY
  5
17
102
{ACAD_REACTORS
330
C
102
}
330
C
100
AcDbDictionary
281
     1
  3
Standard
350
18
  0
DICTIONARY
  5
19
102
{ACAD_REACTORS
330
C
102
}
330
C
100
AcDbDictionary
281
     1
  0
ACDBDICTIONARYWDFLT
  5
E
102
{ACAD_REACTORS
330
C
102
}
330
C
100
AcDbDictionary
281
     1
  3
Normal
350
F
100
AcDbDictionaryWithDefault
340
F
  0
DICTIONARY
  5
790
102
{ACAD_REACTORS
330
C
102
}
330
C
100
AcDbDictionary
281
     1
  3
A0
350
791
  3
A1
350
792
  3
A2
350
793
  3
A3
350
794
  3
A4
350
795
  3
A5
350
796
  3
A6
350
797
  3
A7
350
798
  3
A8
350
799
  3
A9
350
79A
  3
B0
350
79B
  3
B1
350
79C
  3
B2
350
79D
  3
B3
350
79E
  3
B4
350
79F
  3
B5
350
7A0
  3
B6
350
7A1
  3
B7
350
7A2
  3
B8
350
7A3
  3
B9
350
7A4
  3
C0
350
7A5
  3
C1
350
7A6
  3
C2
350
7A7
  3
C3
350
7A8
  3
C4
350
7A9
  3
C5
350
7AA
  3
C6
350
7AB
  3
C7
350
7AC
  3
C8
350
7AD
  3
C9
350
7AE
  3
D0
350
7AF
  3
D1
350
7B0
  3
D2
350
7B1
  0
DICTIONARY
  5
DBA
102
{ACAD_REACTORS
330
C
102
}
330
C
100
AcDbDictionary
281
     1
  3
Imperial24
350
DBB
  0
DICTIONARY
  5
78E
102
{ACAD_REACTORS
330
C
102
}
330
C
100
AcDbDictionary
281
     1
  3
Standard
350
78F
  0
DICTIONARY
  5
77D
102
{ACAD_REACTORS
330
C
102
}
330
C
100
AcDbDictionary
281
     1
  3
2dWireframe
350
783
  3
3D Hidden
350
785
  3
3dWireframe
350
784
  3
Basic
350
782
  3
Brighten
350
789
  3
ColorChange
350
78D
  3
Conceptual
350
786
  3
Dim
350
788
  3
EdgeColorOff
350
DB9
  3
Facepattern
350
78C
  3
Flat
350
77E
  3
FlatWithEdges
350
77F
  3
Gouraud
350
780
  3
GouraudWithEdges
350
781
  3
Hidden
350
DB1
  3
JitterOff
350
DB7
  3
Linepattern
350
78B
  3
OverhangOff
350
DB8
  3
Realistic
350
787
  3
Shaded
350
DB6
  3
Shaded with edges
350
DB5
  3
Shades of Gray
350
DB2
  3
Sketchy
350
DB3
  3
Thicken
350
78A
  3
Wireframe
350
DB0
  3
X-Ray
350
DB4
  0
XRECORD
  5
5C8
102
{ACAD_REACTORS
330
C
102
}
330
C
100
AcDbXrecord
280
     1
 90
   990106
  3

 60
     0
 61
     0
 62
     1
 63
     1
 64
     0
 65
     0
 66
     0
 67
     4
 68
     1
 69
     0
 70
     0
 71
     0
 72
     0
 40
19.64416701626453
170
     1
340
5C0
  0
XRECORD
  5
E38
102
{ACAD_REACTORS
330
C
102
}
330
C
100
AcDbXrecord
280
     1
 90
        1
330
40E
330
78F
330
DBB
330
DBD
  0
DICTIONARY
  5
66
102
{ACAD_REACTORS
330
C
102
}
330
C
100
AcDbDictionary
281
     1
  3
CANNOSCALE
350
841
  3
CMLEADERSTYLE
350
83F
  3
CTABLESTYLE
350
83E
  3
CVIEWDETAILSTYLE
350
E15
  3
CVIEWSECTIONSTYLE
350
E16
  3
DIMASSOC
350
67
  3
HIDETEXT
350
6B
  3
LAYEREVAL
350
E17
  3
LAYERNOTIFY
350
E18
  3
LIGHTINGUNITS
350
842
  3
MSLTSCALE
350
840
  0
DICTIONARY
  5
82C
102
{ACAD_REACTORS
330
82B
102
}
330
82B
100
AcDbDictionary
281
     1
  0
XRECORD
  5
816
102
{ACAD_REACTORS
330
815
102
}
330
815
100
AcDbXrecord
280
     1
290
     1
  0
SORTENTSTABLE
  5
A13
102
{ACAD_REACTORS
330
A12
102
}
330
A12
100
AcDbSortentsTable
330
1F
331
59A
  5
5A3
331
2C0
  5
2C3
331
40E
  5
59B
331
32D
  5
33A
331
AD8
  5
AEE
331
2B8
  5
2BE
331
59B
  5
5B1
331
AE5
  5
72F
331
70A
  5
A2D
331
5C0
  5
70A
331
1A5
  5
1A5
331
473
  5
5A1
331
2C1
  5
32D
331
34A
  5
4A8
331
AEE
  5
AEF
331
32E
  5
40E
331
2B9
  5
2C0
331
B8F
  5
B90
331
60E
  5
A09
331
BA4
  5
2BA
331
2C2
  5
32E
331
5BD
  5
60E
331
AEF
  5
B7C
331
2B7
  5
2B7
331
2BE
  5
2C1
331
32F
  5
473
331
AD6
  5
AD8
331
AC1
  5
AD7
331
2C3
  5
32F
331
2BF
  5
2C2
331
ACA
  5
2B9
331
A11
  5
2B8
331
6D0
  5
A27
331
AD7
  5
AD9
  0
XRECORD
  5
E34
102
{ACAD_REACTORS
330
DAC
102
}
330
DAC
100
AcDbXrecord
280
     1
 40
399657.0
  1
\pxqr;LEAK OR JOINT REPAIR - WALL TO WALL\P{\H0.55555x;REFER TO APPLICATION INSTRUCTION 5.12}
  0
DIMASSOC
  5
C47
102
{ACAD_REACTORS
330
C3A
102
}
330
C3A
100
AcDbDimAssoc
330
C2A
 90
        3
 70
     0
 71
     0
  1
AcDbOsnapPointRef
 72
     1
331
2B9
 73
     2
 91
        0
 40
1.0
 10
0.0
 20
0.0
 30
2.000000000000000E+50
 75
     0
  1
AcDbOsnapPointRef
 72
     8
331
32F
 73
     2
 91
        0
 40
1.0
 10
0.0
 20
0.0
 30
0.0
 75
     1
  1
AcDbOsnapPointRef
 72
     1
331
2B9
 73
     2
 91
        0
 40
1.0
 10
0.0
 20
0.0
 30
2.000000000000000E+50
 75
     0
  0
DIMASSOC
  5
C85
102
{ACAD_REACTORS
330
C78
102
}
330
C78
100
AcDbDimAssoc
330
C68
 90
        3
 70
     0
 71
     0
  1
AcDbOsnapPointRef
 72
     1
331
2B9
 73
     2
 91
        0
 40
1.0
 10
0.0
 20
0.0
 30
2.000000000000000E+50
 75
     0
  1
AcDbOsnapPointRef
 72
     8
331
AC1
 73
     2
 91
        0
 40
0.0
 10
0.0
 20
0.0
 30
0.0
 75
     1
  1
AcDbOsnapPointRef
 72
     1
331
2B9
 73
     2
 91
        0
 40
1.0
 10
0.0
 20
0.0
 30
2.000000000000000E+50
 75
     0
  0
DIMASSOC
  5
CB6
102
{ACAD_REACTORS
330
CAA
102
}
330
CAA
100
AcDbDimAssoc
330
C9B
 90
        3
 70
     0
 71
     0
  1
AcDbOsnapPointRef
 72
     1
331
AC1
 73
     2
 91
        0
 40
1.0
 10
0.0
 20
0.0
 30
2.000000000000000E+50
 75
     0
  1
AcDbOsnapPointRef
 72
    13
331
AC1
 73
     2
 91
        0
 40
0.0
 10
0.0
 20
0.0
 30
2.000000000000000E+50
 75
     0
  0
XRECORD
  5
80F
102
{ACAD_REACTORS
330
80E
102
}
330
80E
100
AcDbXrecord
280
     1
 90
        1
340
791
  0
XRECORD
  5
814
102
{ACAD_REACTORS
330
813
102
}
330
813
100
AcDbXrecord
280
     1
 90
        1
340
791
  0
ACDBDETAILVIEWSTYLE
  5
DBD
102
{ACAD_XDICTIONARY
360
E12
102
}
102
{ACAD_REACTORS
330
DBC
102
}
330
DBC
100
AcDbModelDocViewStyle
 70
     0
  3
Imperial24
290
     0
100
AcDbDetailViewStyle
 70
     0
 71
     0
 90
        3
 71
     1
340
11
 62
   256
 40
0.24
340
0
 62
   256
 40
0.24
300

 40
0.36
280
     3
 71
     2
340
16
 90
       25
 62
   256
 71
     3
340
11
 62
   256
 40
0.24
 90
        1
 40
0.75
 90
        1
300
%<\AcVar ViewType \f "%tc1">% %<\AcVar ViewDetailId>%\PSCALE %<\AcVar ViewScale \f "%sn">%
 71
     4
340
16
 90
       25
 62
   256
340
16
 90
       25
 62
   256
280
     0
  0
LAYOUT
  5
59
102
{ACAD_XDICTIONARY
360
85F
102
}
102
{ACAD_REACTORS
330
1A
102
}
330
1A
100
AcDbPlotSettings
  1

  2
none_device
  4
Letter_(8.50_x_11.00_Inches)
  6

 40
6.349999904632568
 41
6.349999904632568
 42
6.350006103515625
 43
6.350006103515625
 44
215.8999938964844
 45
279.3999938964844
 46
0.0
 47
0.0
 48
0.0
 49
0.0
140
0.0
141
0.0
142
1.0
143
1.0
 70
   688
 72
     0
 73
     1
 74
     5
  7

 75
    16
147
1.0
 76
     1
 77
     2
 78
   300
148
0.0
149
0.0
100
AcDbLayout
  1
Layout1
 70
     1
 71
     1
 10
-0.2500002402958907
 20
-0.2499999962453767
 11
10.74999951940821
 21
8.249999763458731
 12
0.0
 22
0.0
 32
0.0
 14
1.049999952316284
 24
0.7999999523162842
 34
0.0
 15
9.449999570846555
 25
7.199999570846556
 35
0.0
146
0.0
 13
0.0
 23
0.0
 33
0.0
 16
1.0
 26
0.0
 36
0.0
 17
0.0
 27
1.0
 37
0.0
 76
     0
330
58
331
E5
  0
LAYOUT
  5
5E
102
{ACAD_XDICTIONARY
360
830
102
}
102
{ACAD_REACTORS
330
1A
102
}
330
1A
100
AcDbPlotSettings
  1

  2
none_device
  4
Letter_(8.50_x_11.00_Inches)
  6

 40
6.349999904632568
 41
6.349999904632568
 42
6.350006103515625
 43
6.350006103515625
 44
215.8999938964844
 45
279.3999938964844
 46
0.0
 47
0.0
 48
0.0
 49
0.0
140
0.0
141
0.0
142
1.0
143
1.0
 70
   688
 72
     0
 73
     1
 74
     5
  7

 75
    16
147
1.0
 76
     0
 77
     2
 78
   300
148
0.0
149
0.0
100
AcDbLayout
  1
Layout2
 70
     1
 71
     2
 10
-0.2500002402958907
 20
-0.2499999962453767
 11
10.74999951940822
 21
8.249999763458733
 12
0.0
 22
0.0
 32
0.0
 14
-0.3364761813161792
 24
-0.3116110158726855
 34
0.0
 15
10.86607271795274
 25
8.326401927579581
 35
0.0
146
0.0
 13
0.0
 23
0.0
 33
0.0
 16
1.0
 26
0.0
 36
0.0
 17
0.0
 27
1.0
 37
0.0
 76
     0
330
5D
331
80D
1001
ACAD_PSEXT
1000
None
1000
None
1000
Not applicable
1000
The layout will not be plotted unless a new plotter configuration name is selected.
1070
     0
  0
LAYOUT
  5
22
102
{ACAD_XDICTIONARY
360
DE1
102
}
102
{ACAD_REACTORS
330
1A
102
}
330
1A
100
AcDbPlotSettings
  1

  2
none_device
  4
ANSI_A_(8.50_x_11.00_Inches)
  6

 40
6.349999904632568
 41
19.04999923706055
 42
6.350006103515625
 43
19.04998779296875
 44
215.8999938964844
 45
279.3999938964844
 46
0.0
 47
0.0
 48
0.0
 49
0.0
140
0.0
141
0.0
142
1.0
143
2.584895464708373
 70
 11952
 72
     0
 73
     1
 74
     0
  7

 75
     0
147
0.3868628397755418
 76
     0
 77
     2
 78
   300
148
0.0
149
0.0
100
AcDbLayout
  1
Model
 70
     1
 71
     0
 10
0.0
 20
0.0
 11
12.0
 21
9.0
 12
0.0
 22
0.0
 32
0.0
 14
0.0
 24
0.0
 34
0.0
 15
0.0
 25
0.0
 35
0.0
146
0.0
 13
0.0
 23
0.0
 33
0.0
 16
1.0
 26
0.0
 36
0.0
 17
0.0
 27
1.0
 37
0.0
 76
     0
330
1F
331
763
  0
MATERIAL
  5
76D
102
{ACAD_XDICTIONARY
360
76E
102
}
102
{ACAD_REACTORS
330
72
102
}
330
72
100
AcDbMaterial
  1
ByBlock
 72
     0
 43
0.0008202099737533
 43
0.0
 43
0.0
 43
0.0
 43
0.0
 43
0.0008202099737533
 43
0.0
 43
0.0
 43
0.0
 43
0.0
 43
1.0
 43
0.0
 43
0.0
 43
0.0
 43
0.0
 43
1.0
 77
     0
 47
0.0008202099737533
 47
0.0
 47
0.0
 47
0.0
 47
0.0
 47
0.0008202099737533
 47
0.0
 47
0.0
 47
0.0
 47
0.0
 47
1.0
 47
0.0
 47
0.0
 47
0.0
 47
0.0
 47
1.0
171
     0
 49
0.0008202099737533
 49
0.0
 49
0.0
 49
0.0
 49
0.0
 49
0.0008202099737533
 49
0.0
 49
0.0
 49
0.0
 49
0.0
 49
1.0
 49
0.0
 49
0.0
 49
0.0
 49
0.0
 49
1.0
175
     0
142
0.0008202099737533
142
0.0
142
0.0
142
0.0
142
0.0
142
0.0008202099737533
142
0.0
142
0.0
142
0.0
142
0.0
142
1.0
142
0.0
142
0.0
142
0.0
142
0.0
142
1.0
179
     0
144
0.0008202099737533
144
0.0
144
0.0
144
0.0
144
0.0
144
0.0008202099737533
144
0.0
144
0.0
144
0.0
144
0.0
144
1.0
144
0.0
144
0.0
144
0.0
144
0.0
144
1.0
147
0.0008202099737533
147
0.0
147
0.0
147
0.0
147
0.0
147
0.0008202099737533
147
0.0
147
0.0
147
0.0
147
0.0
147
1.0
147
0.0
147
0.0
147
0.0
147
0.0
147
1.0
  0
MATERIAL
  5
765
102
{ACAD_XDICTIONARY
360
766
102
}
102
{ACAD_REACTORS
330
72
102
}
330
72
100
AcDbMaterial
  1
ByLayer
 72
     0
 43
0.0008202099737533
 43
0.0
 43
0.0
 43
0.0
 43
0.0
 43
0.0008202099737533
 43
0.0
 43
0.0
 43
0.0
 43
0.0
 43
1.0
 43
0.0
 43
0.0
 43
0.0
 43
0.0
 43
1.0
 77
     0
 47
0.0008202099737533
 47
0.0
 47
0.0
 47
0.0
 47
0.0
 47
0.0008202099737533
 47
0.0
 47
0.0
 47
0.0
 47
0.0
 47
1.0
 47
0.0
 47
0.0
 47
0.0
 47
0.0
 47
1.0
171
     0
 49
0.0008202099737533
 49
0.0
 49
0.0
 49
0.0
 49
0.0
 49
0.0008202099737533
 49
0.0
 49
0.0
 49
0.0
 49
0.0
 49
1.0
 49
0.0
 49
0.0
 49
0.0
 49
0.0
 49
1.0
175
     0
142
0.0008202099737533
142
0.0
142
0.0
142
0.0
142
0.0
142
0.0008202099737533
142
0.0
142
0.0
142
0.0
142
0.0
142
1.0
142
0.0
142
0.0
142
0.0
142
0.0
142
1.0
179
     0
144
0.0008202099737533
144
0.0
144
0.0
144
0.0
144
0.0
144
0.0008202099737533
144
0.0
144
0.0
144
0.0
144
0.0
144
1.0
144
0.0
144
0.0
144
0.0
144
0.0
144
1.0
147
0.0008202099737533
147
0.0
147
0.0
147
0.0
147
0.0
147
0.0008202099737533
147
0.0
147
0.0
147
0.0
147
0.0
147
1.0
147
0.0
147
0.0
147
0.0
147
0.0
147
1.0
  0
MATERIAL
  5
775
102
{ACAD_XDICTIONARY
360
776
102
}
102
{ACAD_REACTORS
330
72
102
}
330
72
100
AcDbMaterial
  1
Global
 72
     0
 43
0.0008202099737533
 43
0.0
 43
0.0
 43
0.0
 43
0.0
 43
0.0008202099737533
 43
0.0
 43
0.0
 43
0.0
 43
0.0
 43
1.0
 43
0.0
 43
0.0
 43
0.0
 43
0.0
 43
1.0
 77
     0
 47
0.0008202099737533
 47
0.0
 47
0.0
 47
0.0
 47
0.0
 47
0.0008202099737533
 47
0.0
 47
0.0
 47
0.0
 47
0.0
 47
1.0
 47
0.0
 47
0.0
 47
0.0
 47
0.0
 47
1.0
171
     0
 49
0.0008202099737533
 49
0.0
 49
0.0
 49
0.0
 49
0.0
 49
0.0008202099737533
 49
0.0
 49
0.0
 49
0.0
 49
0.0
 49
1.0
 49
0.0
 49
0.0
 49
0.0
 49
0.0
 49
1.0
175
     0
142
0.0008202099737533
142
0.0
142
0.0
142
0.0
142
0.0
142
0.0008202099737533
142
0.0
142
0.0
142
0.0
142
0.0
142
1.0
142
0.0
142
0.0
142
0.0
142
0.0
142
1.0
179
     0
144
0.0008202099737533
144
0.0
144
0.0
144
0.0
144
0.0
144
0.0008202099737533
144
0.0
144
0.0
144
0.0
144
0.0
144
1.0
144
0.0
144
0.0
144
0.0
144
0.0
144
1.0
147
0.0008202099737533
147
0.0
147
0.0
147
0.0
147
0.0
147
0.0008202099737533
147
0.0
147
0.0
147
0.0
147
0.0
147
1.0
147
0.0
147
0.0
147
0.0
147
0.0
147
1.0
  0
MLEADERSTYLE
  5
7B3
102
{ACAD_REACTORS
330
7B2
102
}
330
7B2
100
AcDbMLeaderStyle
179
     2
170
     2
171
     1
172
     0
 90
        2
 40
0.0
 41
0.0
173
     1
 91
-1056964608
340
14
 92
       -2
290
     1
 42
0.09
291
     1
 43
0.36
  3
Standard
 44
0.18
300

342
11
174
     1
178
     6
175
     1
176
     0
 93
-1056964608
 45
0.18
292
     0
297
     0
 46
0.18
 94
-1056964608
 47
1.0
 49
1.0
140
1.0
293
     1
141
0.0
294
     1
177
     0
142
1.0
295
     0
296
     0
143
0.125
271
     0
272
     9
273
     9
298
     0
  0
MLINESTYLE
  5
18
102
{ACAD_REACTORS
330
17
102
}
330
17
100
AcDbMlineStyle
  2
STANDARD
 70
     0
  3

 62
   256
 51
90.0
 52
90.0
 71
     2
 49
0.5
 62
   256
  6
BYLAYER
 49
-0.5
 62
   256
  6
BYLAYER
  0
ACDBPLACEHOLDER
  5
F
102
{ACAD_REACTORS
330
E
102
}
330
E
  0
SCALE
  5
791
102
{ACAD_REACTORS
330
790
102
}
330
790
100
AcDbScale
 70
     0
300
1:1
140
1.0
141
1.0
290
     1
  0
SCALE
  5
792
102
{ACAD_REACTORS
330
790
102
}
330
790
100
AcDbScale
 70
     0
300
1:2
140
1.0
141
2.0
290
     0
  0
SCALE
  5
793
102
{ACAD_REACTORS
330
790
102
}
330
790
100
AcDbScale
 70
     0
300
1:4
140
1.0
141
4.0
290
     0
  0
SCALE
  5
794
102
{ACAD_REACTORS
330
790
102
}
330
790
100
AcDbScale
 70
     0
300
1:5
140
1.0
141
5.0
290
     0
  0
SCALE
  5
795
102
{ACAD_REACTORS
330
790
102
}
330
790
100
AcDbScale
 70
     0
300
1:8
140
1.0
141
8.0
290
     0
  0
SCALE
  5
796
102
{ACAD_REACTORS
330
790
102
}
330
790
100
AcDbScale
 70
     0
300
1:10
140
1.0
141
10.0
290
     0
  0
SCALE
  5
797
102
{ACAD_REACTORS
330
790
102
}
330
790
100
AcDbScale
 70
     0
300
1:16
140
1.0
141
16.0
290
     0
  0
SCALE
  5
798
102
{ACAD_REACTORS
330
790
102
}
330
790
100
AcDbScale
 70
     0
300
1:20
140
1.0
141
20.0
290
     0
  0
SCALE
  5
799
102
{ACAD_REACTORS
330
790
102
}
330
790
100
AcDbScale
 70
     0
300
1:30
140
1.0
141
30.0
290
     0
  0
SCALE
  5
79A
102
{ACAD_REACTORS
330
790
102
}
330
790
100
AcDbScale
 70
     0
300
1:40
140
1.0
141
40.0
290
     0
  0
SCALE
  5
79B
102
{ACAD_REACTORS
330
790
102
}
330
790
100
AcDbScale
 70
     0
300
1:50
140
1.0
141
50.0
290
     0
  0
SCALE
  5
79C
102
{ACAD_REACTORS
330
790
102
}
330
790
100
AcDbScale
 70
     0
300
1:100
140
1.0
141
100.0
290
     0
  0
SCALE
  5
79D
102
{ACAD_REACTORS
330
790
102
}
330
790
100
AcDbScale
 70
     0
300
2:1
140
2.0
141
1.0
290
     0
  0
SCALE
  5
79E
102
{ACAD_REACTORS
330
790
102
}
330
790
100
AcDbScale
 70
     0
300
4:1
140
4.0
141
1.0
290
     0
  0
SCALE
  5
79F
102
{ACAD_REACTORS
330
790
102
}
330
790
100
AcDbScale
 70
     0
300
8:1
140
8.0
141
1.0
290
     0
  0
SCALE
  5
7A0
102
{ACAD_REACTORS
330
790
102
}
330
790
100
AcDbScale
 70
     0
300
10:1
140
10.0
141
1.0
290
     0
  0
SCALE
  5
7A1
102
{ACAD_REACTORS
330
790
102
}
330
790
100
AcDbScale
 70
     0
300
100:1
140
100.0
141
1.0
290
     0
  0
SCALE
  5
7A2
102
{ACAD_REACTORS
330
790
102
}
330
790
100
AcDbScale
 70
     0
300
1/128" = 1'-0"
140
0.0078125
141
12.0
290
     0
  0
SCALE
  5
7A3
102
{ACAD_REACTORS
330
790
102
}
330
790
100
AcDbScale
 70
     0
300
1/64" = 1'-0"
140
0.015625
141
12.0
290
     0
  0
SCALE
  5
7A4
102
{ACAD_REACTORS
330
790
102
}
330
790
100
AcDbScale
 70
     0
300
1/32" = 1'-0"
140
0.03125
141
12.0
290
     0
  0
SCALE
  5
7A5
102
{ACAD_REACTORS
330
790
102
}
330
790
100
AcDbScale
 70
     0
300
1/16" = 1'-0"
140
0.0625
141
12.0
290
     0
  0
SCALE
  5
7A6
102
{ACAD_REACTORS
330
790
102
}
330
790
100
AcDbScale
 70
     0
300
3/32" = 1'-0"
140
0.09375
141
12.0
290
     0
  0
SCALE
  5
7A7
102
{ACAD_REACTORS
330
790
102
}
330
790
100
AcDbScale
 70
     0
300
1/8" = 1'-0"
140
0.125
141
12.0
290
     0
  0
SCALE
  5
7A8
102
{ACAD_REACTORS
330
790
102
}
330
790
100
AcDbScale
 70
     0
300
3/16" = 1'-0"
140
0.1875
141
12.0
290
     0
  0
SCALE
  5
7A9
102
{ACAD_REACTORS
330
790
102
}
330
790
100
AcDbScale
 70
     0
300
1/4" = 1'-0"
140
0.25
141
12.0
290
     0
  0
SCALE
  5
7AA
102
{ACAD_REACTORS
330
790
102
}
330
790
100
AcDbScale
 70
     0
300
3/8" = 1'-0"
140
0.375
141
12.0
290
     0
  0
SCALE
  5
7AB
102
{ACAD_REACTORS
330
790
102
}
330
790
100
AcDbScale
 70
     0
300
1/2" = 1'-0"
140
0.5
141
12.0
290
     0
  0
SCALE
  5
7AC
102
{ACAD_REACTORS
330
790
102
}
330
790
100
AcDbScale
 70
     0
300
3/4" = 1'-0"
140
0.75
141
12.0
290
     0
  0
SCALE
  5
7AD
102
{ACAD_REACTORS
330
790
102
}
330
790
100
AcDbScale
 70
     0
300
1" = 1'-0"
140
1.0
141
12.0
290
     0
  0
SCALE
  5
7AE
102
{ACAD_REACTORS
330
790
102
}
330
790
100
AcDbScale
 70
     0
300
1-1/2" = 1'-0"
140
1.5
141
12.0
290
     0
  0
SCALE
  5
7AF
102
{ACAD_REACTORS
330
790
102
}
330
790
100
AcDbScale
 70
     0
300
3" = 1'-0"
140
3.0
141
12.0
290
     0
  0
SCALE
  5
7B0
102
{ACAD_REACTORS
330
790
102
}
330
790
100
AcDbScale
 70
     0
300
6" = 1'-0"
140
6.0
141
12.0
290
     0
  0
SCALE
  5
7B1
102
{ACAD_REACTORS
330
790
102
}
330
790
100
AcDbScale
 70
     0
300
1'-0" = 1'-0"
140
12.0
141
12.0
290
     0
  0
ACDBSECTIONVIEWSTYLE
  5
DBB
102
{ACAD_XDICTIONARY
360
E10
102
}
102
{ACAD_REACTORS
330
DBA
102
}
330
DBA
100
AcDbModelDocViewStyle
 70
     0
  3
Imperial24
290
     0
100
AcDbSectionViewStyle
 70
     0
 71
     0
 90
       78
 71
     1
340
11
 62
   256
 40
0.24
340
0
340
0
 62
   256
 40
0.24
300
I, O, Q, S, X, Z
 40
0.48
 90
        3
 40
0.18
 90
        1
 71
     2
340
16
 90
       25
 62
   256
340
16
 90
       50
 62
   256
 40
0.24
 40
0.0
 40
0.24
 71
     3
340
11
 62
   256
 40
0.24
 90
        1
 40
0.75
 90
        1
300
%<\AcVar ViewType \f "%tc1">% %<\AcVar ViewSectionStartId>%-%<\AcVar ViewSectionEndId>%\PSCALE %<\AcVar ViewScale \f "%sn">%
 71
     4
 62
   256
 62
   257
300
ANSI31
 40
1.0
 90
        0
290
     0
290
     0
 90
        6
 40
0.0
 40
1.570796326794896
 40
0.2617993877991494
 40
1.308996938995747
 40
-0.2617993877991494
 40
1.832595714594046
  0
TABLESTYLE
  5
78F
102
{ACAD_XDICTIONARY
360
83B
102
}
102
{ACAD_REACTORS
330
78E
102
}
330
78E
100
AcDbTableStyle
280
     0
  3
Standard
 70
     0
 71
     0
 40
0.06
 41
0.06
280
     0
281
     0
  7
Standard
140
0.18
170
     2
 62
     0
 63
     7
283
     0
 90
      512
 91
        0
  1

274
    -2
284
     1
 64
     0
275
    -2
285
     1
 65
     0
276
    -2
286
     1
 66
     0
277
    -2
287
     1
 67
     0
278
    -2
288
     1
 68
     0
279
    -2
289
     1
 69
     0
  7
Standard
140
0.25
170
     5
 62
     0
 63
     7
283
     0
 90
      512
 91
        0
  1

274
    -2
284
     1
 64
     0
275
    -2
285
     1
 65
     0
276
    -2
286
     1
 66
     0
277
    -2
287
     1
 67
     0
278
    -2
288
     1
 68
     0
279
    -2
289
     1
 69
     0
  7
Standard
140
0.18
170
     5
 62
     0
 63
     7
283
     0
 90
      512
 91
        0
  1

274
    -2
284
     1
 64
     0
275
    -2
285
     1
 65
     0
276
    -2
286
     1
 66
     0
277
    -2
287
     1
 67
     0
278
    -2
288
     1
 68
     0
279
    -2
289
     1
 69
     0
  0
VISUALSTYLE
  5
783
102
{ACAD_REACTORS
330
77D
102
}
330
77D
100
AcDbVisualStyle
  2
2dWireframe
 70
     4
177
     3
291
     0
 70
    58
 90
        0
176
     1
 90
        2
176
     1
 90
        0
176
     1
 90
        0
176
     1
 40
0.6
176
     1
 40
30.0
176
     1
 62
     7
420
 16777215
176
     1
 90
        1
176
     1
 90
        4
176
     1
 62
     7
176
     1
 62
   257
176
     1
 90
        1
176
     1
 90
        1
176
     1
 40
1.0
176
     1
 90
        0
176
     1
 62
   257
176
     1
 40
1.0
176
     1
 90
        1
176
     1
 90
        6
176
     1
 90
        2
176
     1
 62
     7
176
     1
 90
        5
176
     1
 90
        0
176
     1
 90
        0
176
     1
290
     0
176
     1
 90
        1
176
     1
 40
0.0
176
     1
 90
        0
176
     1
290
     1
176
     1
290
     1
176
     1
290
     0
176
     1
290
     0
176
     1
290
     0
176
     1
290
     0
176
     1
290
     0
176
     1
290
     0
176
     1
290
     0
176
     1
 90
       50
176
     1
 40
0.0
176
     1
 40
1.0
176
     1
 90
        0
176
     1
 62
    18
420
        0
176
     1
 90
       50
176
     1
 90
        3
176
     1
 62
     5
420
      255
176
     1
290
     0
176
     1
 90
       50
176
     1
 90
       50
176
     1
 90
       50
176
     1
290
     0
176
     1
 90
       50
176
     1
 62
   256
176
     0
 40
1.0
176
     0
 90
        2
176
     1
  1
strokes_ogs.tif
176
     1
290
     0
176
     1
 40
1.0
176
     1
 40
1.0
176
     1
  0
VISUALSTYLE
  5
785
102
{ACAD_REACTORS
330
77D
102
}
330
77D
100
AcDbVisualStyle
  2
3D Hidden
 70
     6
177
     3
291
     0
 70
    58
 90
        1
176
     1
 90
        2
176
     1
 90
        2
176
     1
 90
        0
176
     1
 40
0.6
176
     1
 40
30.0
176
     1
 62
     7
420
 16777215
176
     1
 90
        2
176
     1
 90
        2
176
     1
 62
     7
176
     1
 62
   257
176
     1
 90
        2
176
     1
 90
        1
176
     1
 40
40.0
176
     1
 90
        0
176
     1
 62
   257
176
     1
 40
1.0
176
     1
 90
        1
176
     1
 90
        6
176
     1
 90
        2
176
     1
 62
     7
176
     1
 90
        3
176
     1
 90
        0
176
     1
 90
        0
176
     1
290
     0
176
     1
 90
        1
176
     1
 40
0.0
176
     1
 90
        0
176
     1
290
     0
176
     1
290
     1
176
     1
290
     1
176
     1
290
     0
176
     1
290
     0
176
     1
290
     0
176
     1
290
     0
176
     1
290
     0
176
     1
290
     0
176
     1
 90
       50
176
     1
 40
0.0
176
     1
 40
1.0
176
     1
 90
        0
176
     1
 62
    18
420
        0
176
     1
 90
       50
176
     1
 90
        3
176
     1
 62
     5
420
      255
176
     1
290
     0
176
     1
 90
       50
176
     1
 90
       50
176
     1
 90
       50
176
     1
290
     0
176
     1
 90
       50
176
     1
 62
   256
176
     0
 40
1.0
176
     0
 90
        2
176
     1
  1
strokes_ogs.tif
176
     1
290
     0
176
     1
 40
1.0
176
     1
 40
1.0
176
     1
  0
VISUALSTYLE
  5
784
102
{ACAD_REACTORS
330
77D
102
}
330
77D
100
AcDbVisualStyle
  2
3dWireframe
 70
     5
177
     3
291
     0
 70
    58
 90
        0
176
     1
 90
        2
176
     1
 90
        0
176
     1
 90
        0
176
     1
 40
0.6
176
     1
 40
30.0
176
     1
 62
     7
420
 16777215
176
     1
 90
        1
176
     1
 90
        4
176
     1
 62
     7
176
     1
 62
   257
176
     1
 90
        1
176
     1
 90
        1
176
     1
 40
1.0
176
     1
 90
        0
176
     1
 62
   257
176
     1
 40
1.0
176
     1
 90
        1
176
     1
 90
        6
176
     1
 90
        2
176
     1
 62
     7
176
     1
 90
        5
176
     1
 90
        0
176
     1
 90
        0
176
     1
290
     0
176
     1
 90
        1
176
     1
 40
0.0
176
     1
 90
        0
176
     1
290
     0
176
     1
290
     1
176
     1
290
     1
176
     1
290
     0
176
     1
290
     0
176
     1
290
     0
176
     1
290
     0
176
     1
290
     0
176
     1
290
     0
176
     1
 90
       50
176
     1
 40
0.0
176
     1
 40
1.0
176
     1
 90
        0
176
     1
 62
    18
420
        0
176
     1
 90
       50
176
     1
 90
        3
176
     1
 62
     5
420
      255
176
     1
290
     0
176
     1
 90
       50
176
     1
 90
       50
176
     1
 90
       50
176
     1
290
     0
176
     1
 90
       50
176
     1
 62
   256
176
     0
 40
1.0
176
     0
 90
        2
176
     1
  1
strokes_ogs.tif
176
     1
290
     0
176
     1
 40
1.0
176
     1
 40
1.0
176
     1
  0
VISUALSTYLE
  5
782
102
{ACAD_REACTORS
330
77D
102
}
330
77D
100
AcDbVisualStyle
  2
Basic
 70
     7
177
     3
291
     1
 70
    58
 90
        1
176
     1
 90
        0
176
     1
 90
        1
176
     1
 90
        0
176
     1
 40
0.6
176
     1
 40
30.0
176
     1
 62
     7
420
 16777215
176
     1
 90
        0
176
     1
 90
        4
176
     1
 62
     7
176
     1
 62
   257
176
     1
 90
        1
176
     1
 90
        1
176
     1
 40
1.0
176
     1
 90
        8
176
     1
 62
     7
176
     1
 40
1.0
176
     1
 90
        1
176
     1
 90
        6
176
     1
 90
        2
176
     1
 62
     7
176
     1
 90
        5
176
     1
 90
        0
176
     1
 90
        0
176
     1
290
     0
176
     1
 90
        1
176
     1
 40
0.0
176
     1
 90
        0
176
     1
290
     0
176
     1
290
     1
176
     1
290
     1
176
     1
290
     0
176
     1
290
     0
176
     1
290
     0
176
     1
290
     0
176
     1
290
     0
176
     1
290
     0
176
     1
 90
       50
176
     1
 40
0.0
176
     1
 40
1.0
176
     1
 90
        0
176
     1
 62
    18
420
        0
176
     1
 90
       50
176
     1
 90
        3
176
     1
 62
     5
420
      255
176
     1
290
     0
176
     1
 90
       50
176
     1
 90
       50
176
     1
 90
       50
176
     1
290
     0
176
     1
 90
       50
176
     1
 62
   256
176
     0
 40
1.0
176
     0
 90
        2
176
     1
  1
strokes_ogs.tif
176
     1
290
     0
176
     1
 40
1.0
176
     1
 40
1.0
176
     1
  0
VISUALSTYLE
  5
789
102
{ACAD_REACTORS
330
77D
102
}
330
77D
100
AcDbVisualStyle
  2
Brighten
 70
    12
177
     3
291
     1
 70
    58
 90
        2
176
     1
 90
        2
176
     1
 90
        0
176
     1
 90
        0
176
     1
 40
0.6
176
     1
 40
30.0
176
     1
 62
     7
420
 16777215
176
     1
 90
        1
176
     1
 90
        4
176
     1
 62
     7
176
     1
 62
   257
176
     1
 90
        1
176
     1
 90
        1
176
     1
 40
1.0
176
     1
 90
        8
176
     1
 62
     7
176
     1
 40
1.0
176
     1
 90
        1
176
     1
 90
        6
176
     1
 90
        2
176
     1
 62
     7
176
     1
 90
        5
176
     1
 90
        0
176
     1
 90
        0
176
     1
290
     0
176
     1
 90
        1
176
     1
 40
50.0
176
     1
 90
        0
176
     1
290
     0
176
     1
290
     1
176
     1
290
     1
176
     1
290
     0
176
     1
290
     0
176
     1
290
     0
176
     1
290
     0
176
     1
290
     0
176
     1
290
     0
176
     1
 90
       50
176
     1
 40
0.0
176
     1
 40
1.0
176
     1
 90
        0
176
     1
 62
    18
420
        0
176
     1
 90
       50
176
     1
 90
        3
176
     1
 62
     5
420
      255
176
     1
290
     0
176
     1
 90
       50
176
     1
 90
       50
176
     1
 90
       50
176
     1
290
     0
176
     1
 90
       50
176
     1
 62
   256
176
     0
 40
1.0
176
     0
 90
        2
176
     1
  1
strokes_ogs.tif
176
     1
290
     0
176
     1
 40
1.0
176
     1
 40
1.0
176
     1
  0
VISUALSTYLE
  5
78D
102
{ACAD_REACTORS
330
77D
102
}
330
77D
100
AcDbVisualStyle
  2
ColorChange
 70
    16
177
     3
291
     1
 70
    58
 90
        2
176
     1
 90
        2
176
     1
 90
        3
176
     1
 90
        0
176
     1
 40
0.6
176
     1
 40
30.0
176
     1
 62
     8
420
  8421504
176
     1
 90
        1
176
     1
 90
        4
176
     1
 62
     7
176
     1
 62
   257
176
     1
 90
        1
176
     1
 90
        1
176
     1
 40
1.0
176
     1
 90
        8
176
     1
 62
     8
420
  8421504
176
     1
 40
1.0
176
     1
 90
        1
176
     1
 90
        6
176
     1
 90
        2
176
     1
 62
     7
176
     1
 90
        5
176
     1
 90
        0
176
     1
 90
        0
176
     1
290
     0
176
     1
 90
        1
176
     1
 40
0.0
176
     1
 90
        0
176
     1
290
     0
176
     1
290
     1
176
     1
290
     1
176
     1
290
     0
176
     1
290
     0
176
     1
290
     0
176
     1
290
     0
176
     1
290
     0
176
     1
290
     0
176
     1
 90
       50
176
     1
 40
0.0
176
     1
 40
1.0
176
     1
 90
        0
176
     1
 62
    18
420
        0
176
     1
 90
       50
176
     1
 90
        3
176
     1
 62
     5
420
      255
176
     1
290
     0
176
     1
 90
       50
176
     1
 90
       50
176
     1
 90
       50
176
     1
290
     0
176
     1
 90
       50
176
     1
 62
   256
176
     0
 40
1.0
176
     0
 90
        2
176
     1
  1
strokes_ogs.tif
176
     1
290
     0
176
     1
 40
1.0
176
     1
 40
1.0
176
     1
  0
VISUALSTYLE
  5
786
102
{ACAD_REACTORS
330
77D
102
}
330
77D
100
AcDbVisualStyle
  2
Conceptual
 70
     9
177
     3
291
     0
 70
    58
 90
        3
176
     1
 90
        2
176
     1
 90
        0
176
     1
 90
        0
176
     1
 40
0.6
176
     1
 40
30.0
176
     1
 62
     7
420
 16777215
176
     1
 90
        2
176
     1
 90
        2
176
     1
 62
     7
176
     1
 62
   257
176
     1
 90
        1
176
     1
 90
        1
176
     1
 40
40.0
176
     1
 90
        8
176
     1
 62
     7
176
     1
 40
1.0
176
     1
 90
        1
176
     1
 90
        6
176
     1
 90
        2
176
     1
 62
     7
176
     1
 90
        3
176
     1
 90
        0
176
     1
 90
        0
176
     1
290
     0
176
     1
 90
        1
176
     1
 40
0.0
176
     1
 90
        0
176
     1
290
     0
176
     1
290
     1
176
     1
290
     1
176
     1
290
     0
176
     1
290
     0
176
     1
290
     0
176
     1
290
     0
176
     1
290
     0
176
     1
290
     0
176
     1
 90
       50
176
     1
 40
0.0
176
     1
 40
1.0
176
     1
 90
        0
176
     1
 62
    18
420
        0
176
     1
 90
       50
176
     1
 90
        3
176
     1
 62
     5
420
      255
176
     1
290
     0
176
     1
 90
       50
176
     1
 90
       50
176
     1
 90
       50
176
     1
290
     0
176
     1
 90
       50
176
     1
 62
   256
176
     0
 40
1.0
176
     0
 90
        2
176
     1
  1
strokes_ogs.tif
176
     1
290
     0
176
     1
 40
1.0
176
     1
 40
1.0
176
     1
  0
VISUALSTYLE
  5
788
102
{ACAD_REACTORS
330
77D
102
}
330
77D
100
AcDbVisualStyle
  2
Dim
 70
    11
177
     3
291
     1
 70
    58
 90
        2
176
     1
 90
        2
176
     1
 90
        0
176
     1
 90
        0
176
     1
 40
0.6
176
     1
 40
30.0
176
     1
 62
     7
420
 16777215
176
     1
 90
        1
176
     1
 90
        4
176
     1
 62
     7
176
     1
 62
   257
176
     1
 90
        1
176
     1
 90
        1
176
     1
 40
1.0
176
     1
 90
        8
176
     1
 62
     7
176
     1
 40
1.0
176
     1
 90
        1
176
     1
 90
        6
176
     1
 90
        2
176
     1
 62
     7
176
     1
 90
        5
176
     1
 90
        0
176
     1
 90
        0
176
     1
290
     0
176
     1
 90
        1
176
     1
 40
-50.0
176
     1
 90
        0
176
     1
290
     0
176
     1
290
     1
176
     1
290
     1
176
     1
290
     0
176
     1
290
     0
176
     1
290
     0
176
     1
290
     0
176
     1
290
     0
176
     1
290
     0
176
     1
 90
       50
176
     1
 40
0.0
176
     1
 40
1.0
176
     1
 90
        0
176
     1
 62
    18
420
        0
176
     1
 90
       50
176
     1
 90
        3
176
     1
 62
     5
420
      255
176
     1
290
     0
176
     1
 90
       50
176
     1
 90
       50
176
     1
 90
       50
176
     1
290
     0
176
     1
 90
       50
176
     1
 62
   256
176
     0
 40
1.0
176
     0
 90
        2
176
     1
  1
strokes_ogs.tif
176
     1
290
     0
176
     1
 40
1.0
176
     1
 40
1.0
176
     1
  0
VISUALSTYLE
  5
DB9
102
{ACAD_REACTORS
330
77D
102
}
330
77D
100
AcDbVisualStyle
  2
EdgeColorOff
 70
    22
177
     3
291
     1
 70
    58
 90
        2
176
     0
 90
        2
176
     0
 90
        0
176
     0
 90
        0
176
     0
 40
0.6
176
     0
 40
30.0
176
     0
 62
     7
420
 16777215
176
     0
 90
        1
176
     0
 90
        4
176
     0
 62
     7
176
     0
 62
   257
176
     0
 90
        1
176
     0
 90
        1
176
     0
 40
1.0
176
     0
 90
        8
176
     2
 62
     7
176
     0
 40
1.0
176
     0
 90
        1
176
     0
 90
        6
176
     0
 90
        2
176
     0
 62
     7
176
     0
 90
        5
176
     0
 90
        0
176
     0
 90
        0
176
     0
290
     0
176
     0
 90
        1
176
     0
 40
0.0
176
     0
 90
        0
176
     0
290
     0
176
     0
290
     1
176
     0
290
     1
176
     0
290
     0
176
     0
290
     0
176
     0
290
     0
176
     0
290
     0
176
     0
290
     0
176
     0
290
     0
176
     0
 90
       50
176
     0
 40
0.0
176
     0
 40
1.0
176
     0
 90
        0
176
     0
 62
    18
420
        0
176
     0
 90
       50
176
     0
 90
        3
176
     0
 62
     5
420
      255
176
     0
290
     0
176
     0
 90
       50
176
     0
 90
       50
176
     0
 90
       50
176
     0
290
     0
176
     0
 90
       50
176
     0
 62
   256
176
     0
 40
1.0
176
     0
 90
        2
176
     0
  1
strokes_ogs.tif
176
     0
290
     0
176
     0
 40
1.0
176
     0
 40
1.0
176
     0
  0
VISUALSTYLE
  5
78C
102
{ACAD_REACTORS
330
77D
102
}
330
77D
100
AcDbVisualStyle
  2
Facepattern
 70
    15
177
     3
291
     1
 70
    58
 90
        2
176
     1
 90
        2
176
     1
 90
        0
176
     1
 90
        0
176
     1
 40
0.6
176
     1
 40
30.0
176
     1
 62
     7
420
 16777215
176
     1
 90
        1
176
     1
 90
        4
176
     1
 62
     7
176
     1
 62
   257
176
     1
 90
        1
176
     1
 90
        1
176
     1
 40
1.0
176
     1
 90
        8
176
     1
 62
     7
176
     1
 40
1.0
176
     1
 90
        1
176
     1
 90
        6
176
     1
 90
        2
176
     1
 62
     7
176
     1
 90
        5
176
     1
 90
        0
176
     1
 90
        0
176
     1
290
     0
176
     1
 90
        1
176
     1
 40
0.0
176
     1
 90
        0
176
     1
290
     0
176
     1
290
     1
176
     1
290
     1
176
     1
290
     0
176
     1
290
     0
176
     1
290
     0
176
     1
290
     0
176
     1
290
     0
176
     1
290
     0
176
     1
 90
       50
176
     1
 40
0.0
176
     1
 40
1.0
176
     1
 90
        0
176
     1
 62
    18
420
        0
176
     1
 90
       50
176
     1
 90
        3
176
     1
 62
     5
420
      255
176
     1
290
     0
176
     1
 90
       50
176
     1
 90
       50
176
     1
 90
       50
176
     1
290
     0
176
     1
 90
       50
176
     1
 62
   256
176
     0
 40
1.0
176
     0
 90
        2
176
     1
  1
strokes_ogs.tif
176
     1
290
     0
176
     1
 40
1.0
176
     1
 40
1.0
176
     1
  0
VISUALSTYLE
  5
77E
102
{ACAD_REACTORS
330
77D
102
}
330
77D
100
AcDbVisualStyle
  2
Flat
 70
     0
177
     3
291
     1
 70
    58
 90
        2
176
     1
 90
        1
176
     1
 90
        1
176
     1
 90
        2
176
     1
 40
0.6
176
     1
 40
30.0
176
     1
 62
     7
420
 16777215
176
     1
 90
        0
176
     1
 90
        4
176
     1
 62
     7
176
     1
 62
   257
176
     1
 90
        1
176
     1
 90
        1
176
     1
 40
1.0
176
     1
 90
        8
176
     1
 62
     7
176
     1
 40
1.0
176
     1
 90
        1
176
     1
 90
        6
176
     1
 90
        2
176
     1
 62
     7
176
     1
 90
        5
176
     1
 90
        0
176
     1
 90
        0
176
     1
290
     0
176
     1
 90
       13
176
     1
 40
0.0
176
     1
 90
        0
176
     1
290
     0
176
     1
290
     1
176
     1
290
     1
176
     1
290
     0
176
     1
290
     0
176
     1
290
     0
176
     1
290
     0
176
     1
290
     0
176
     1
290
     0
176
     1
 90
       50
176
     1
 40
0.0
176
     1
 40
1.0
176
     1
 90
        0
176
     1
 62
    18
420
        0
176
     1
 90
       50
176
     1
 90
        3
176
     1
 62
     5
420
      255
176
     1
290
     0
176
     1
 90
       50
176
     1
 90
       50
176
     1
 90
       50
176
     1
290
     0
176
     1
 90
       50
176
     1
 62
   256
176
     0
 40
1.0
176
     0
 90
        2
176
     1
  1
strokes_ogs.tif
176
     1
290
     0
176
     1
 40
1.0
176
     1
 40
1.0
176
     1
  0
VISUALSTYLE
  5
77F
102
{ACAD_REACTORS
330
77D
102
}
330
77D
100
AcDbVisualStyle
  2
FlatWithEdges
 70
     1
177
     3
291
     1
 70
    58
 90
        2
176
     1
 90
        1
176
     1
 90
        1
176
     1
 90
        2
176
     1
 40
0.6
176
     1
 40
30.0
176
     1
 62
     7
420
 16777215
176
     1
 90
        1
176
     1
 90
        4
176
     1
 62
     7
176
     1
 62
   257
176
     1
 90
        1
176
     1
 90
        1
176
     1
 40
1.0
176
     1
 90
        0
176
     1
 62
   257
176
     1
 40
1.0
176
     1
 90
        1
176
     1
 90
        6
176
     1
 90
        2
176
     1
 62
     7
176
     1
 90
        5
176
     1
 90
        0
176
     1
 90
        0
176
     1
290
     0
176
     1
 90
       13
176
     1
 40
0.0
176
     1
 90
        0
176
     1
290
     0
176
     1
290
     1
176
     1
290
     1
176
     1
290
     0
176
     1
290
     0
176
     1
290
     0
176
     1
290
     0
176
     1
290
     0
176
     1
290
     0
176
     1
 90
       50
176
     1
 40
0.0
176
     1
 40
1.0
176
     1
 90
        0
176
     1
 62
    18
420
        0
176
     1
 90
       50
176
     1
 90
        3
176
     1
 62
     5
420
      255
176
     1
290
     0
176
     1
 90
       50
176
     1
 90
       50
176
     1
 90
       50
176
     1
290
     0
176
     1
 90
       50
176
     1
 62
   256
176
     0
 40
1.0
176
     0
 90
        2
176
     1
  1
strokes_ogs.tif
176
     1
290
     0
176
     1
 40
1.0
176
     1
 40
1.0
176
     1
  0
VISUALSTYLE
  5
780
102
{ACAD_REACTORS
330
77D
102
}
330
77D
100
AcDbVisualStyle
  2
Gouraud
 70
     2
177
     3
291
     1
 70
    58
 90
        2
176
     1
 90
        2
176
     1
 90
        1
176
     1
 90
        2
176
     1
 40
0.6
176
     1
 40
30.0
176
     1
 62
     7
420
 16777215
176
     1
 90
        0
176
     1
 90
        4
176
     1
 62
     7
176
     1
 62
   257
176
     1
 90
        1
176
     1
 90
        1
176
     1
 40
1.0
176
     1
 90
        0
176
     1
 62
     7
176
     1
 40
1.0
176
     1
 90
        1
176
     1
 90
        6
176
     1
 90
        2
176
     1
 62
     7
176
     1
 90
        5
176
     1
 90
        0
176
     1
 90
        0
176
     1
290
     0
176
     1
 90
       13
176
     1
 40
0.0
176
     1
 90
        0
176
     1
290
     0
176
     1
290
     1
176
     1
290
     1
176
     1
290
     0
176
     1
290
     0
176
     1
290
     0
176
     1
290
     0
176
     1
290
     0
176
     1
290
     0
176
     1
 90
       50
176
     1
 40
0.0
176
     1
 40
1.0
176
     1
 90
        0
176
     1
 62
    18
420
        0
176
     1
 90
       50
176
     1
 90
        3
176
     1
 62
     5
420
      255
176
     1
290
     0
176
     1
 90
       50
176
     1
 90
       50
176
     1
 90
       50
176
     1
290
     0
176
     1
 90
       50
176
     1
 62
   256
176
     0
 40
1.0
176
     0
 90
        2
176
     1
  1
strokes_ogs.tif
176
     1
290
     0
176
     1
 40
1.0
176
     1
 40
1.0
176
     1
  0
VISUALSTYLE
  5
781
102
{ACAD_REACTORS
330
77D
102
}
330
77D
100
AcDbVisualStyle
  2
GouraudWithEdges
 70
     3
177
     3
291
     1
 70
    58
 90
        2
176
     1
 90
        2
176
     1
 90
        1
176
     1
 90
        2
176
     1
 40
0.6
176
     1
 40
30.0
176
     1
 62
     7
420
 16777215
176
     1
 90
        1
176
     1
 90
        4
176
     1
 62
     7
176
     1
 62
   257
176
     1
 90
        1
176
     1
 90
        1
176
     1
 40
1.0
176
     1
 90
        0
176
     1
 62
   257
176
     1
 40
1.0
176
     1
 90
        1
176
     1
 90
        6
176
     1
 90
        2
176
     1
 62
     7
176
     1
 90
        5
176
     1
 90
        0
176
     1
 90
        0
176
     1
290
     0
176
     1
 90
       13
176
     1
 40
0.0
176
     1
 90
        0
176
     1
290
     0
176
     1
290
     1
176
     1
290
     1
176
     1
290
     0
176
     1
290
     0
176
     1
290
     0
176
     1
290
     0
176
     1
290
     0
176
     1
290
     0
176
     1
 90
       50
176
     1
 40
0.0
176
     1
 40
1.0
176
     1
 90
        0
176
     1
 62
    18
420
        0
176
     1
 90
       50
176
     1
 90
        3
176
     1
 62
     5
420
      255
176
     1
290
     0
176
     1
 90
       50
176
     1
 90
       50
176
     1
 90
       50
176
     1
290
     0
176
     1
 90
       50
176
     1
 62
   256
176
     0
 40
1.0
176
     0
 90
        2
176
     1
  1
strokes_ogs.tif
176
     1
290
     0
176
     1
 40
1.0
176
     1
 40
1.0
176
     1
  0
VISUALSTYLE
  5
DB1
102
{ACAD_REACTORS
330
77D
102
}
330
77D
100
AcDbVisualStyle
  2
Hidden
 70
     6
177
     3
291
     0
 70
    58
 90
        1
176
     1
 90
        2
176
     1
 90
        2
176
     1
 90
        0
176
     1
 40
0.6
176
     1
 40
30.0
176
     1
 62
     7
420
 16777215
176
     1
 90
        2
176
     1
 90
        2
176
     1
 62
     7
176
     1
 62
   257
176
     1
 90
        2
176
     1
 90
        1
176
     1
 40
40.0
176
     1
 90
        0
176
     1
 62
   257
176
     1
 40
1.0
176
     1
 90
        1
176
     1
 90
        6
176
     1
 90
        2
176
     1
 62
     7
176
     1
 90
        3
176
     1
 90
        0
176
     1
 90
        0
176
     1
290
     0
176
     1
 90
        1
176
     1
 40
0.0
176
     1
 90
        0
176
     1
290
     0
176
     1
290
     1
176
     1
290
     1
176
     1
290
     0
176
     1
290
     0
176
     1
290
     0
176
     1
290
     0
176
     1
290
     0
176
     1
290
     0
176
     1
 90
       50
176
     1
 40
0.0
176
     1
 40
1.0
176
     1
 90
        0
176
     1
 62
    18
420
        0
176
     1
 90
       50
176
     1
 90
        3
176
     1
 62
     5
420
      255
176
     1
290
     0
176
     1
 90
       50
176
     1
 90
       50
176
     1
 90
       50
176
     1
290
     0
176
     1
 90
       50
176
     1
 62
   256
176
     0
 40
1.0
176
     0
 90
        2
176
     1
  1
strokes_ogs.tif
176
     1
290
     0
176
     1
 40
1.0
176
     1
 40
1.0
176
     1
  0
VISUALSTYLE
  5
DB7
102
{ACAD_REACTORS
330
77D
102
}
330
77D
100
AcDbVisualStyle
  2
JitterOff
 70
    20
177
     3
291
     1
 70
    58
 90
        2
176
     0
 90
        2
176
     0
 90
        0
176
     0
 90
        0
176
     0
 40
0.6
176
     0
 40
30.0
176
     0
 62
     7
420
 16777215
176
     0
 90
        1
176
     0
 90
        4
176
     0
 62
     7
176
     0
 62
   257
176
     0
 90
        1
176
     0
 90
        1
176
     0
 40
1.0
176
     0
 90
       10
176
     2
 62
     7
176
     0
 40
1.0
176
     0
 90
        1
176
     0
 90
        6
176
     0
 90
        2
176
     0
 62
     7
176
     0
 90
        5
176
     0
 90
        0
176
     0
 90
        0
176
     0
290
     0
176
     0
 90
        1
176
     0
 40
0.0
176
     0
 90
        0
176
     0
290
     0
176
     0
290
     1
176
     0
290
     1
176
     0
290
     0
176
     0
290
     0
176
     0
290
     0
176
     0
290
     0
176
     0
290
     0
176
     0
290
     0
176
     0
 90
       50
176
     0
 40
0.0
176
     0
 40
1.0
176
     0
 90
        0
176
     0
 62
    18
420
        0
176
     0
 90
       50
176
     0
 90
        3
176
     0
 62
     5
420
      255
176
     0
290
     0
176
     0
 90
       50
176
     0
 90
       50
176
     0
 90
       50
176
     0
290
     0
176
     0
 90
       50
176
     0
 62
   256
176
     0
 40
1.0
176
     0
 90
        2
176
     0
  1
strokes_ogs.tif
176
     0
290
     0
176
     0
 40
1.0
176
     0
 40
1.0
176
     0
  0
VISUALSTYLE
  5
78B
102
{ACAD_REACTORS
330
77D
102
}
330
77D
100
AcDbVisualStyle
  2
Linepattern
 70
    14
177
     3
291
     1
 70
    58
 90
        2
176
     1
 90
        2
176
     1
 90
        0
176
     1
 90
        0
176
     1
 40
0.6
176
     1
 40
30.0
176
     1
 62
     7
420
 16777215
176
     1
 90
        1
176
     1
 90
        4
176
     1
 62
     7
176
     1
 62
   257
176
     1
 90
        7
176
     1
 90
        7
176
     1
 40
1.0
176
     1
 90
        8
176
     1
 62
     7
176
     1
 40
1.0
176
     1
 90
        1
176
     1
 90
        6
176
     1
 90
        2
176
     1
 62
     7
176
     1
 90
        5
176
     1
 90
        0
176
     1
 90
        0
176
     1
290
     0
176
     1
 90
        1
176
     1
 40
0.0
176
     1
 90
        0
176
     1
290
     0
176
     1
290
     1
176
     1
290
     1
176
     1
290
     0
176
     1
290
     0
176
     1
290
     0
176
     1
290
     0
176
     1
290
     0
176
     1
290
     0
176
     1
 90
       50
176
     1
 40
0.0
176
     1
 40
1.0
176
     1
 90
        0
176
     1
 62
    18
420
        0
176
     1
 90
       50
176
     1
 90
        3
176
     1
 62
     5
420
      255
176
     1
290
     0
176
     1
 90
       50
176
     1
 90
       50
176
     1
 90
       50
176
     1
290
     0
176
     1
 90
       50
176
     1
 62
   256
176
     0
 40
1.0
176
     0
 90
        2
176
     1
  1
strokes_ogs.tif
176
     1
290
     0
176
     1
 40
1.0
176
     1
 40
1.0
176
     1
  0
VISUALSTYLE
  5
DB8
102
{ACAD_REACTORS
330
77D
102
}
330
77D
100
AcDbVisualStyle
  2
OverhangOff
 70
    21
177
     3
291
     1
 70
    58
 90
        2
176
     0
 90
        2
176
     0
 90
        0
176
     0
 90
        0
176
     0
 40
0.6
176
     0
 40
30.0
176
     0
 62
     7
420
 16777215
176
     0
 90
        1
176
     0
 90
        4
176
     0
 62
     7
176
     0
 62
   257
176
     0
 90
        1
176
     0
 90
        1
176
     0
 40
1.0
176
     0
 90
        9
176
     2
 62
     7
176
     0
 40
1.0
176
     0
 90
        1
176
     0
 90
        6
176
     0
 90
        2
176
     0
 62
     7
176
     0
 90
        5
176
     0
 90
        0
176
     0
 90
        0
176
     0
290
     0
176
     0
 90
        1
176
     0
 40
0.0
176
     0
 90
        0
176
     0
290
     0
176
     0
290
     1
176
     0
290
     1
176
     0
290
     0
176
     0
290
     0
176
     0
290
     0
176
     0
290
     0
176
     0
290
     0
176
     0
290
     0
176
     0
 90
       50
176
     0
 40
0.0
176
     0
 40
1.0
176
     0
 90
        0
176
     0
 62
    18
420
        0
176
     0
 90
       50
176
     0
 90
        3
176
     0
 62
     5
420
      255
176
     0
290
     0
176
     0
 90
       50
176
     0
 90
       50
176
     0
 90
       50
176
     0
290
     0
176
     0
 90
       50
176
     0
 62
   256
176
     0
 40
1.0
176
     0
 90
        2
176
     0
  1
strokes_ogs.tif
176
     0
290
     0
176
     0
 40
1.0
176
     0
 40
1.0
176
     0
  0
VISUALSTYLE
  5
787
102
{ACAD_REACTORS
330
77D
102
}
330
77D
100
AcDbVisualStyle
  2
Realistic
 70
     8
177
     3
291
     0
 70
    58
 90
        2
176
     1
 90
        2
176
     1
 90
        0
176
     1
 90
        0
176
     1
 40
0.6
176
     1
 40
30.0
176
     1
 62
     7
420
 16777215
176
     1
 90
        1
176
     1
 90
        0
176
     1
 62
     7
176
     1
 62
   257
176
     1
 90
        1
176
     1
 90
        1
176
     1
 40
1.0
176
     1
 90
        8
176
     1
 62
     8
420
  7895160
176
     1
 40
1.0
176
     1
 90
        1
176
     1
 90
        6
176
     1
 90
        2
176
     1
 62
     7
176
     1
 90
        5
176
     1
 90
        0
176
     1
 90
        0
176
     1
290
     0
176
     1
 90
       13
176
     1
 40
0.0
176
     1
 90
        0
176
     1
290
     0
176
     1
290
     1
176
     1
290
     1
176
     1
290
     0
176
     1
290
     0
176
     1
290
     0
176
     1
290
     0
176
     1
290
     0
176
     1
290
     0
176
     1
 90
       50
176
     1
 40
0.0
176
     1
 40
1.0
176
     1
 90
        0
176
     1
 62
    18
420
        0
176
     1
 90
       50
176
     1
 90
        3
176
     1
 62
     5
420
      255
176
     1
290
     0
176
     1
 90
       50
176
     1
 90
       50
176
     1
 90
       50
176
     1
290
     0
176
     1
 90
       50
176
     1
 62
   256
176
     0
 40
1.0
176
     0
 90
        2
176
     1
  1
strokes_ogs.tif
176
     1
290
     0
176
     1
 40
1.0
176
     1
 40
1.0
176
     1
  0
VISUALSTYLE
  5
DB6
102
{ACAD_REACTORS
330
77D
102
}
330
77D
100
AcDbVisualStyle
  2
Shaded
 70
    27
177
     3
291
     0
 70
    58
 90
        2
176
     1
 90
        2
176
     1
 90
        1
176
     1
 90
        2
176
     1
 40
0.6
176
     1
 40
30.0
176
     1
 62
     7
420
 16777215
176
     1
 90
        0
176
     1
 90
        4
176
     1
 62
     7
176
     1
 62
   257
176
     1
 90
        1
176
     1
 90
        1
176
     1
 40
1.0
176
     1
 90
        8
176
     1
 62
   257
176
     1
 40
1.0
176
     1
 90
        1
176
     1
 90
        6
176
     1
 90
        2
176
     1
 62
     8
420
  7895160
176
     1
 90
        3
176
     1
 90
        0
176
     1
 90
        0
176
     1
290
     0
176
     1
 90
        5
176
     1
 40
0.0
176
     1
 90
        0
176
     1
290
     0
176
     1
290
     1
176
     1
290
     1
176
     1
290
     0
176
     1
290
     0
176
     1
290
     0
176
     1
290
     0
176
     1
290
     0
176
     1
290
     0
176
     1
 90
       50
176
     1
 40
0.0
176
     1
 40
1.0
176
     1
 90
        0
176
     1
 62
    18
420
        0
176
     1
 90
       50
176
     1
 90
        3
176
     1
 62
     5
420
      255
176
     1
290
     0
176
     1
 90
       50
176
     1
 90
       50
176
     1
 90
       50
176
     1
290
     0
176
     1
 90
       50
176
     1
 62
   256
176
     0
 40
1.0
176
     0
 90
        2
176
     1
  1
strokes_ogs.tif
176
     1
290
     0
176
     1
 40
1.0
176
     1
 40
1.0
176
     1
  0
VISUALSTYLE
  5
DB5
102
{ACAD_REACTORS
330
77D
102
}
330
77D
100
AcDbVisualStyle
  2
Shaded with edges
 70
    26
177
     3
291
     0
 70
    58
 90
        2
176
     1
 90
        2
176
     1
 90
        1
176
     1
 90
        2
176
     1
 40
0.6
176
     1
 40
30.0
176
     1
 62
     7
420
 16777215
176
     1
 90
        1
176
     1
 90
       10
176
     1
 62
     7
176
     1
 62
   257
176
     1
 90
        2
176
     1
 90
        1
176
     1
 40
1.0
176
     1
 90
        8
176
     1
 62
   257
176
     1
 40
1.0
176
     1
 90
        1
176
     1
 90
        6
176
     1
 90
        2
176
     1
 62
     7
176
     1
 90
        3
176
     1
 90
        0
176
     1
 90
        0
176
     1
290
     0
176
     1
 90
        5
176
     1
 40
0.0
176
     1
 90
        0
176
     1
290
     0
176
     1
290
     1
176
     1
290
     1
176
     1
290
     0
176
     1
290
     0
176
     1
290
     0
176
     1
290
     0
176
     1
290
     0
176
     1
290
     0
176
     1
 90
       50
176
     1
 40
0.0
176
     1
 40
1.0
176
     1
 90
        0
176
     1
 62
    18
420
        0
176
     1
 90
       50
176
     1
 90
        3
176
     1
 62
     5
420
      255
176
     1
290
     0
176
     1
 90
       50
176
     1
 90
       50
176
     1
 90
       50
176
     1
290
     0
176
     1
 90
       50
176
     1
 62
   256
176
     0
 40
1.0
176
     0
 90
        2
176
     1
  1
strokes_ogs.tif
176
     1
290
     0
176
     1
 40
1.0
176
     1
 40
1.0
176
     1
  0
VISUALSTYLE
  5
DB2
102
{ACAD_REACTORS
330
77D
102
}
330
77D
100
AcDbVisualStyle
  2
Shades of Gray
 70
    23
177
     3
291
     0
 70
    58
 90
        2
176
     1
 90
        2
176
     1
 90
        3
176
     1
 90
        0
176
     1
 40
0.6
176
     1
 40
30.0
176
     1
 62
     7
420
 16777215
176
     1
 90
        2
176
     1
 90
        2
176
     1
 62
     7
176
     1
 62
     7
176
     1
 90
        1
176
     1
 90
        1
176
     1
 40
40.0
176
     1
 90
        8
176
     1
 62
     7
176
     1
 40
1.0
176
     1
 90
        1
176
     1
 90
        6
176
     1
 90
        2
176
     1
 62
     7
176
     1
 90
        3
176
     1
 90
        0
176
     1
 90
        0
176
     1
290
     0
176
     1
 90
        1
176
     1
 40
0.0
176
     1
 90
        0
176
     1
290
     0
176
     1
290
     1
176
     1
290
     1
176
     1
290
     0
176
     1
290
     0
176
     1
290
     0
176
     1
290
     0
176
     1
290
     0
176
     1
290
     0
176
     1
 90
       50
176
     1
 40
0.0
176
     1
 40
1.0
176
     1
 90
        0
176
     1
 62
    18
420
        0
176
     1
 90
       50
176
     1
 90
        3
176
     1
 62
     5
420
      255
176
     1
290
     0
176
     1
 90
       50
176
     1
 90
       50
176
     1
 90
       50
176
     1
290
     0
176
     1
 90
       50
176
     1
 62
   256
176
     0
 40
1.0
176
     0
 90
        2
176
     1
  1
strokes_ogs.tif
176
     1
290
     0
176
     1
 40
1.0
176
     1
 40
1.0
176
     1
  0
VISUALSTYLE
  5
DB3
102
{ACAD_REACTORS
330
77D
102
}
330
77D
100
AcDbVisualStyle
  2
Sketchy
 70
    24
177
     3
291
     0
 70
    58
 90
        1
176
     1
 90
        2
176
     1
 90
        2
176
     1
 90
        0
176
     1
 40
0.6
176
     1
 40
30.0
176
     1
 62
     7
420
 16777215
176
     1
 90
        2
176
     1
 90
        2
176
     1
 62
     7
176
     1
 62
     7
176
     1
 90
        1
176
     1
 90
        1
176
     1
 40
40.0
176
     1
 90
       11
176
     1
 62
     7
176
     1
 40
1.0
176
     1
 90
        1
176
     1
 90
        6
176
     1
 90
        2
176
     1
 62
     7
176
     1
 90
        6
176
     1
 90
        0
176
     1
 90
        0
176
     1
290
     0
176
     1
 90
        1
176
     1
 40
0.0
176
     1
 90
        0
176
     1
290
     0
176
     1
290
     1
176
     1
290
     1
176
     1
290
     0
176
     1
290
     0
176
     1
290
     0
176
     1
290
     0
176
     1
290
     0
176
     1
290
     0
176
     1
 90
       50
176
     1
 40
0.0
176
     1
 40
1.0
176
     1
 90
        0
176
     1
 62
    18
420
        0
176
     1
 90
       50
176
     1
 90
        3
176
     1
 62
     5
420
      255
176
     1
290
     0
176
     1
 90
       50
176
     1
 90
       50
176
     1
 90
       50
176
     1
290
     0
176
     1
 90
       50
176
     1
 62
   256
176
     0
 40
1.0
176
     0
 90
        2
176
     1
  1
strokes_ogs.tif
176
     1
290
     0
176
     1
 40
1.0
176
     1
 40
1.0
176
     1
  0
VISUALSTYLE
  5
78A
102
{ACAD_REACTORS
330
77D
102
}
330
77D
100
AcDbVisualStyle
  2
Thicken
 70
    13
177
     3
291
     1
 70
    58
 90
        2
176
     1
 90
        2
176
     1
 90
        0
176
     1
 90
        0
176
     1
 40
0.6
176
     1
 40
30.0
176
     1
 62
     7
420
 16777215
176
     1
 90
        1
176
     1
 90
        4
176
     1
 62
     7
176
     1
 62
   257
176
     1
 90
        1
176
     1
 90
        1
176
     1
 40
1.0
176
     1
 90
       12
176
     1
 62
     7
176
     1
 40
1.0
176
     1
 90
        1
176
     1
 90
        6
176
     1
 90
        2
176
     1
 62
     7
176
     1
 90
        5
176
     1
 90
        0
176
     1
 90
        0
176
     1
290
     0
176
     1
 90
        1
176
     1
 40
0.0
176
     1
 90
        0
176
     1
290
     0
176
     1
290
     1
176
     1
290
     1
176
     1
290
     0
176
     1
290
     0
176
     1
290
     0
176
     1
290
     0
176
     1
290
     0
176
     1
290
     0
176
     1
 90
       50
176
     1
 40
0.0
176
     1
 40
1.0
176
     1
 90
        0
176
     1
 62
    18
420
        0
176
     1
 90
       50
176
     1
 90
        3
176
     1
 62
     5
420
      255
176
     1
290
     0
176
     1
 90
       50
176
     1
 90
       50
176
     1
 90
       50
176
     1
290
     0
176
     1
 90
       50
176
     1
 62
   256
176
     0
 40
1.0
176
     0
 90
        2
176
     1
  1
strokes_ogs.tif
176
     1
290
     0
176
     1
 40
1.0
176
     1
 40
1.0
176
     1
  0
VISUALSTYLE
  5
DB0
102
{ACAD_REACTORS
330
77D
102
}
330
77D
100
AcDbVisualStyle
  2
Wireframe
 70
     5
177
     3
291
     0
 70
    58
 90
        0
176
     1
 90
        2
176
     1
 90
        0
176
     1
 90
        0
176
     1
 40
0.6
176
     1
 40
30.0
176
     1
 62
     7
420
 16777215
176
     1
 90
        1
176
     1
 90
        4
176
     1
 62
     7
176
     1
 62
   257
176
     1
 90
        1
176
     1
 90
        1
176
     1
 40
1.0
176
     1
 90
        0
176
     1
 62
   257
176
     1
 40
1.0
176
     1
 90
        1
176
     1
 90
        6
176
     1
 90
        2
176
     1
 62
     7
176
     1
 90
        3
176
     1
 90
        0
176
     1
 90
        0
176
     1
290
     0
176
     1
 90
        1
176
     1
 40
0.0
176
     1
 90
        0
176
     1
290
     0
176
     1
290
     1
176
     1
290
     1
176
     1
290
     0
176
     1
290
     0
176
     1
290
     0
176
     1
290
     0
176
     1
290
     0
176
     1
290
     0
176
     1
 90
       50
176
     1
 40
0.0
176
     1
 40
1.0
176
     1
 90
        0
176
     1
 62
    18
420
        0
176
     1
 90
       50
176
     1
 90
        3
176
     1
 62
     5
420
      255
176
     1
290
     0
176
     1
 90
       50
176
     1
 90
       50
176
     1
 90
       50
176
     1
290
     0
176
     1
 90
       50
176
     1
 62
   256
176
     0
 40
1.0
176
     0
 90
        2
176
     1
  1
strokes_ogs.tif
176
     1
290
     0
176
     1
 40
1.0
176
     1
 40
1.0
176
     1
  0
VISUALSTYLE
  5
DB4
102
{ACAD_REACTORS
330
77D
102
}
330
77D
100
AcDbVisualStyle
  2
X-Ray
 70
    25
177
     3
291
     0
 70
    58
 90
        2
176
     1
 90
        2
176
     1
 90
        1
176
     1
 90
        1
176
     1
 40
0.5
176
     1
 40
30.0
176
     1
 62
     7
420
 16777215
176
     1
 90
        1
176
     1
 90
        0
176
     1
 62
     7
176
     1
 62
   257
176
     1
 90
        1
176
     1
 90
        1
176
     1
 40
1.0
176
     1
 90
        8
176
     1
 62
     7
176
     1
 40
1.0
176
     1
 90
        1
176
     1
 90
        6
176
     1
 90
        2
176
     1
 62
     7
176
     1
 90
        3
176
     1
 90
        0
176
     1
 90
        0
176
     1
290
     0
176
     1
 90
       13
176
     1
 40
0.0
176
     1
 90
        0
176
     1
290
     0
176
     1
290
     1
176
     1
290
     1
176
     1
290
     0
176
     1
290
     0
176
     1
290
     0
176
     1
290
     0
176
     1
290
     0
176
     1
290
     0
176
     1
 90
       50
176
     1
 40
0.0
176
     1
 40
1.0
176
     1
 90
        0
176
     1
 62
    18
420
        0
176
     1
 90
       50
176
     1
 90
        3
176
     1
 62
     5
420
      255
176
     1
290
     0
176
     1
 90
       50
176
     1
 90
       50
176
     1
 90
       50
176
     1
290
     0
176
     1
 90
       50
176
     1
 62
   256
176
     0
 40
1.0
176
     0
 90
        2
176
     1
  1
strokes_ogs.tif
176
     1
290
     0
176
     1
 40
1.0
176
     1
 40
1.0
176
     1
  0
DICTIONARYVAR
  5
841
102
{ACAD_REACTORS
330
66
102
}
330
66
100
DictionaryVariables
280
     0
  1
1:1
  0
DICTIONARYVAR
  5
83F
102
{ACAD_REACTORS
330
66
102
}
330
66
100
DictionaryVariables
280
     0
  1
STANDARD
  0
DICTIONARYVAR
  5
83E
102
{ACAD_REACTORS
330
66
102
}
330
66
100
DictionaryVariables
280
     0
  1
STANDARD
  0
DICTIONARYVAR
  5
E15
102
{ACAD_REACTORS
330
66
102
}
330
66
100
DictionaryVariables
280
     0
  1
Imperial24
  0
DICTIONARYVAR
  5
E16
102
{ACAD_REACTORS
330
66
102
}
330
66
100
DictionaryVariables
280
     0
  1
Imperial24
  0
DICTIONARYVAR
  5
67
102
{ACAD_REACTORS
330
66
102
}
330
66
100
DictionaryVariables
280
     0
  1
2
  0
DICTIONARYVAR
  5
6B
102
{ACAD_REACTORS
330
66
102
}
330
66
100
DictionaryVariables
280
     0
  1
1
  0
DICTIONARYVAR
  5
E17
102
{ACAD_REACTORS
330
66
102
}
330
66
100
DictionaryVariables
280
     0
  1
1
  0
DICTIONARYVAR
  5
E18
102
{ACAD_REACTORS
330
66
102
}
330
66
100
DictionaryVariables
280
     0
  1
15
  0
DICTIONARYVAR
  5
842
102
{ACAD_REACTORS
330
66
102
}
330
66
100
DictionaryVariables
280
     0
  1
0
  0
DICTIONARYVAR
  5
840
102
{ACAD_REACTORS
330
66
102
}
330
66
100
DictionaryVariables
280
     0
  1
0
  0
DICTIONARY
  5
E12
330
DBD
100
AcDbDictionary
280
     1
281
     1
  3
ACAD_XREC_ROUNDTRIP
360
E37
  0
DICTIONARY
  5
85F
330
59
100
AcDbDictionary
280
     1
281
     1
  0
DICTIONARY
  5
830
330
5E
100
AcDbDictionary
280
     1
281
     1
  0
DICTIONARY
  5
DE1
330
22
100
AcDbDictionary
280
     1
281
     1
  3
AcPublish_PlotSettingsOverride
360
DE2
  0
DICTIONARY
  5
76E
330
76D
100
AcDbDictionary
280
     1
281
     1
  3
BUMPTILE
360
770
  3
DIFFUSETILE
360
76F
  3
OPACITYTILE
360
773
  3
REFLECTIONTILE
360
772
  3
REFRACTIONTILE
360
774
  3
SPECULARTILE
360
771
  0
DICTIONARY
  5
766
330
765
100
AcDbDictionary
280
     1
281
     1
  3
BUMPTILE
360
768
  3
DIFFUSETILE
360
767
  3
OPACITYTILE
360
76B
  3
REFLECTIONTILE
360
76A
  3
REFRACTIONTILE
360
76C
  3
SPECULARTILE
360
769
  0
DICTIONARY
  5
776
330
775
100
AcDbDictionary
280
     1
281
     1
  3
BUMPTILE
360
778
  3
DIFFUSETILE
360
777
  3
OPACITYTILE
360
77B
  3
REFLECTIONTILE
360
77A
  3
REFRACTIONTILE
360
77C
  3
SPECULARTILE
360
779
  0
DICTIONARY
  5
E10
330
DBB
100
AcDbDictionary
280
     1
281
     1
  3
ACAD_XREC_ROUNDTRIP
360
E36
  0
DICTIONARY
  5
83B
330
78F
100
AcDbDictionary
280
     1
281
     1
  3
ACAD_ROUNDTRIP_2008_TABLESTYLE_CELLSTYLEMAP
360
E35
  0
XRECORD
  5
E37
102
{ACAD_REACTORS
330
E12
102
}
330
E12
100
AcDbXrecord
280
     1
102
DISPLAYNAME
  1
Imperial24
102
FLAGS
 90
        0
  0
PLOTSETTINGS
  5
DE2
102
{ACAD_REACTORS
330
DE1
102
}
330
DE1
100
AcDbPlotSettings
  1

  2
none_device
  4
ANSI_A_(8.50_x_11.00_Inches)
  6

 40
6.349999904632568
 41
19.04999923706055
 42
6.350006103515625
 43
19.04998779296875
 44
215.8999938964844
 45
279.3999938964844
 46
0.0
 47
0.0
 48
0.0
 49
0.0
140
0.0
141
0.0
142
1.0
143
71.42414700606646
 70
 11952
 72
     0
 73
     1
 74
     0
  7

 75
     0
147
0.0140008672405295
 76
     0
 77
     2
 78
   300
148
-6271.424278917486
149
-6223.901371320371
  0
XRECORD
  5
770
102
{ACAD_REACTORS
330
76E
102
}
330
76E
100
AcDbXrecord
280
     1
270
     1
271
     1
  0
XRECORD
  5
76F
102
{ACAD_REACTORS
330
76E
102
}
330
76E
100
AcDbXrecord
280
     1
270
     1
271
     1
  0
XRECORD
  5
773
102
{ACAD_REACTORS
330
76E
102
}
330
76E
100
AcDbXrecord
280
     1
270
     1
271
     1
  0
XRECORD
  5
772
102
{ACAD_REACTORS
330
76E
102
}
330
76E
100
AcDbXrecord
280
     1
270
     1
271
     1
  0
XRECORD
  5
774
102
{ACAD_REACTORS
330
76E
102
}
330
76E
100
AcDbXrecord
280
     1
270
     1
271
     1
  0
XRECORD
  5
771
102
{ACAD_REACTORS
330
76E
102
}
330
76E
100
AcDbXrecord
280
     1
270
     1
271
     1
  0
XRECORD
  5
768
102
{ACAD_REACTORS
330
766
102
}
330
766
100
AcDbXrecord
280
     1
270
     1
271
     1
  0
XRECORD
  5
767
102
{ACAD_REACTORS
330
766
102
}
330
766
100
AcDbXrecord
280
     1
270
     1
271
     1
  0
XRECORD
  5
76B
102
{ACAD_REACTORS
330
766
102
}
330
766
100
AcDbXrecord
280
     1
270
     1
271
     1
  0
XRECORD
  5
76A
102
{ACAD_REACTORS
330
766
102
}
330
766
100
AcDbXrecord
280
     1
270
     1
271
     1
  0
XRECORD
  5
76C
102
{ACAD_REACTORS
330
766
102
}
330
766
100
AcDbXrecord
280
     1
270
     1
271
     1
  0
XRECORD
  5
769
102
{ACAD_REACTORS
330
766
102
}
330
766
100
AcDbXrecord
280
     1
270
     1
271
     1
  0
XRECORD
  5
778
102
{ACAD_REACTORS
330
776
102
}
330
776
100
AcDbXrecord
280
     1
270
     1
271
     1
  0
XRECORD
  5
777
102
{ACAD_REACTORS
330
776
102
}
330
776
100
AcDbXrecord
280
     1
270
     1
271
     1
  0
XRECORD
  5
77B
102
{ACAD_REACTORS
330
776
102
}
330
776
100
AcDbXrecord
280
     1
270
     1
271
     1
  0
XRECORD
  5
77A
102
{ACAD_REACTORS
330
776
102
}
330
776
100
AcDbXrecord
280
     1
270
     1
271
     1
  0
XRECORD
  5
77C
102
{ACAD_REACTORS
330
776
102
}
330
776
100
AcDbXrecord
280
     1
270
     1
271
     1
  0
XRECORD
  5
779
102
{ACAD_REACTORS
330
776
102
}
330
776
100
AcDbXrecord
280
     1
270
     1
271
     1
  0
XRECORD
  5
E36
102
{ACAD_REACTORS
330
E10
102
}
330
E10
100
AcDbXrecord
280
     1
102
DISPLAYNAME
  1
Imperial24
102
FLAGS
 90
        0
  0
CELLSTYLEMAP
  5
E35
102
{ACAD_REACTORS
330
83B
102
}
330
83B
100
AcDbCellStyleMap
 90
        3
300
CELLSTYLE
  1
TABLEFORMAT_BEGIN
 90
        5
170
     1
 91
        0
 92
    32768
 62
   257
 93
        1
300
CONTENTFORMAT
  1
CONTENTFORMAT_BEGIN
 90
        0
 91
        0
 92
      512
 93
        0
300

 40
0.0
140
1.0
 94
        5
 62
     0
340
11
144
0.25
309
CONTENTFORMAT_END
171
     0
 94
        0
309
TABLEFORMAT_END
  1
CELLSTYLE_BEGIN
 90
        1
 91
        1
300
_TITLE
309
CELLSTYLE_END
300
CELLSTYLE
  1
TABLEFORMAT_BEGIN
 90
        5
170
     1
 91
        0
 92
        0
 62
   257
 93
        1
300
CONTENTFORMAT
  1
CONTENTFORMAT_BEGIN
 90
        0
 91
        0
 92
      512
 93
        0
300

 40
0.0
140
1.0
 94
        5
 62
     0
340
11
144
0.18
309
CONTENTFORMAT_END
171
     0
 94
        0
309
TABLEFORMAT_END
  1
CELLSTYLE_BEGIN
 90
        2
 91
        1
300
_HEADER
309
CELLSTYLE_END
300
CELLSTYLE
  1
TABLEFORMAT_BEGIN
 90
        5
170
     1
 91
        0
 92
        0
 62
   257
 93
        1
300
CONTENTFORMAT
  1
CONTENTFORMAT_BEGIN
 90
        0
 91
        0
 92
      512
 93
        0
300

 40
0.0
140
1.0
 94
        2
 62
     0
340
11
144
0.18
309
CONTENTFORMAT_END
171
     0
 94
        0
309
TABLEFORMAT_END
  1
CELLSTYLE_BEGIN
 90
        3
 91
        2
300
_DATA
309
CELLSTYLE_END
  0
ENDSEC
  0
SECTION
  2
ACDSDATA
 70
     2
 71
     6
  0
ACDSSCHEMA
 90
        0
  1
AcDb_Thumbnail_Schema
  2
AcDbDs::ID
280
    10
 91
        8
  2
Thumbnail_Data
280
    15
 91
        0
101
ACDSRECORD
 95
        0
 90
        1
  2
AcDbDs::TreatedAsObjectData
280
     1
291
     1
101
ACDSRECORD
 95
        0
 90
        2
  2
AcDbDs::Legacy
280
     1
291
     1
101
ACDSRECORD
  1
AcDbDs::ID
 90
        3
  2
AcDs:Indexable
280
     1
291
     1
101
ACDSRECORD
  1
AcDbDs::ID
 90
        4
  2
AcDbDs::HandleAttribute
280
     7
282
     1
  0
ACDSSCHEMA
 90
        1
  1
AcDbDs::TreatedAsObjectDataSchema
  2
AcDbDs::TreatedAsObjectData
280
     1
 91
        0
  0
ACDSSCHEMA
 90
        2
  1
AcDbDs::LegacySchema
  2
AcDbDs::Legacy
280
     1
 91
        0
  0
ACDSSCHEMA
 90
        3
  1
AcDbDs::IndexedPropertySchema
  2
AcDs:Indexable
280
     1
 91
        0
  0
ACDSSCHEMA
 90
        4
  1
AcDbDs::HandleAttributeSchema
  2
AcDbDs::HandleAttribute
280
     7
 91
        1
284
     1
  0
ACDSRECORD
 90
        0
  2
AcDbDs::ID
280
    10
320
59
  2
Thumbnail_Data
280
    15
 94
     1058
310
89504E470D0A1A0A0000000D4948445200000100000000C508030000008CFEDCE700000300504C5445FFFFFF000000C8C8C80000000000000000000000000000000000000000000000000000330000660000990000CC0000FF0033000033330033660033990033CC0033FF0066000066330066660066990066CC0066FF0099
310
000099330099660099990099CC0099FF00CC0000CC3300CC6600CC9900CCCC00CCFF00FF0000FF3300FF6600FF9900FFCC00FFFF3300003300333300663300993300CC3300FF3333003333333333663333993333CC3333FF3366003366333366663366993366CC3366FF3399003399333399663399993399CC3399FF33CC00
310
33CC3333CC6633CC9933CCCC33CCFF33FF0033FF3333FF6633FF9933FFCC33FFFF6600006600336600666600996600CC6600FF6633006633336633666633996633CC6633FF6666006666336666666666996666CC6666FF6699006699336699666699996699CC6699FF66CC0066CC3366CC6666CC9966CCCC66CCFF66FF0066
310
FF3366FF6666FF9966FFCC66FFFF9900009900339900669900999900CC9900FF9933009933339933669933999933CC9933FF9966009966339966669966999966CC9966FF9999009999339999669999999999CC9999FF99CC0099CC3399CC6699CC9999CCCC99CCFF99FF0099FF3399FF6699FF9999FFCC99FFFFCC0000CC00
310
33CC0066CC0099CC00CCCC00FFCC3300CC3333CC3366CC3399CC33CCCC33FFCC6600CC6633CC6666CC6699CC66CCCC66FFCC9900CC9933CC9966CC9999CC99CCCC99FFCCCC00CCCC33CCCC66CCCC99CCCCCCCCCCFFCCFF00CCFF33CCFF66CCFF99CCFFCCCCFFFFFF0000FF0033FF0066FF0099FF00CCFF00FFFF3300FF3333
310
FF3366FF3399FF33CCFF33FFFF6600FF6633FF6666FF6699FF66CCFF66FFFF9900FF9933FF9966FF9999FF99CCFF99FFFFCC00FFCC33FFCC66FFCC99FFCCCCFFCCFFFFFF00FFFF33FFFF66FFFF99FFFFCCFFFFFF0000000D0D0D1A1A1A2828283535354343435050505D5D5D6B6B6B787878868686939393A1A1A1AEAEAEBB
310
BBBBC9C9C9D6D6D6E4E4E4F1F1F1FFFFFF000000000000000000000000000000000000000000000000000000000000B0E2D235000000DD4944415478DAEDD1410D00300C03B1F0873924954A61AF463E08BE449224499224499224697B05FD01143C0400000000000000000000000000000000000000000000000000000000
310
00000000000000000000000000000000000000000000000000000000000000000000000000000000000000000000000000000000000000000000000000000000000000000000000000000000000000000000000000000000000000000000000000000000000000000000000000000000000000000000000000000000000000
310
00000000000000700BA0A04892244992244992246D03060F5DBB833945440000000049454E44AE426082
  0
ACDSRECORD
 90
        0
  2
AcDbDs::ID
280
    10
320
5E
  2
Thumbnail_Data
280
    15
 94
     2483
310
89504E470D0A1A0A0000000D4948445200000100000000C508030000008CFEDCE700000300504C5445FFFFFF000000C8C8C80000000000000000000000000000000000000000000000000000330000660000990000CC0000FF0033000033330033660033990033CC0033FF0066000066330066660066990066CC0066FF0099
310
000099330099660099990099CC0099FF00CC0000CC3300CC6600CC9900CCCC00CCFF00FF0000FF3300FF6600FF9900FFCC00FFFF3300003300333300663300993300CC3300FF3333003333333333663333993333CC3333FF3366003366333366663366993366CC3366FF3399003399333399663399993399CC3399FF33CC00
310
33CC3333CC6633CC9933CCCC33CCFF33FF0033FF3333FF6633FF9933FFCC33FFFF6600006600336600666600996600CC6600FF6633006633336633666633996633CC6633FF6666006666336666666666996666CC6666FF6699006699336699666699996699CC6699FF66CC0066CC3366CC6666CC9966CCCC66CCFF66FF0066
310
FF3366FF6666FF9966FFCC66FFFF9900009900339900669900999900CC9900FF9933009933339933669933999933CC9933FF9966009966339966669966999966CC9966FF9999009999339999669999999999CC9999FF99CC0099CC3399CC6699CC9999CCCC99CCFF99FF0099FF3399FF6699FF9999FFCC99FFFFCC0000CC00
310
33CC0066CC0099CC00CCCC00FFCC3300CC3333CC3366CC3399CC33CCCC33FFCC6600CC6633CC6666CC6699CC66CCCC66FFCC9900CC9933CC9966CC9999CC99CCCC99FFCCCC00CCCC33CCCC66CCCC99CCCCCCCCCCFFCCFF00CCFF33CCFF66CCFF99CCFFCCCCFFFFFF0000FF0033FF0066FF0099FF00CCFF00FFFF3300FF3333
310
FF3366FF3399FF33CCFF33FFFF6600FF6633FF6666FF6699FF66CCFF66FFFF9900FF9933FF9966FF9999FF99CCFF99FFFFCC00FFCC33FFCC66FFCC99FFCCCCFFCCFFFFFF00FFFF33FFFF66FFFF99FFFFCCFFFFFF0000000D0D0D1A1A1A2828283535354343435050505D5D5D6B6B6B787878868686939393A1A1A1AEAEAEBB
310
BBBBC9C9C9D6D6D6E4E4E4F1F1F1FFFFFF000000000000000000000000000000000000000000000000000000000000B0E2D235000005914944415478DAED9D5B96EB2A0C443DFF61EE91DCB5CEEDC4604B205E769C547D25E93681421252619C6D130441100441100441100441100441100441100441100441100441100441
310
F86DF0EB3D1701224004880011F0D3043C1713790C3446847ADCF7597F199F3FE6BA009661249F531C688810D22FA2DDA8F15F8C13806B13347F19398DC92B02DED8E2F0B38320D98798464CAB95A69787EDA6E850B08880DCE6ADF68FF343836B11F9EF50E3BB992C880134CCE891927C7AE8EC235978A3D8C81D79C0C14B
310
ADD869F49D8A61B7AC68DC4B8071F5D9265AFA48761117F67CB8197C37A1E035D6B56C762076FF87FB08A038F650BAF22F8783917EDE4000A38D1F52A2B799D09C1A70A90B30460A5EF0229001411E53B836068CD71A0DE93A76824AB18D250430AB79BA1258D2D8C91AB72CCD34650B8825AF0CF6915A8A31CD44ADE2A5B1
310
EF5472BE48DD1B0D6A9710D05AF3D63AC17027FCC9E18255003FFDAB9610EC16D0AB26DC9D093A293AB1A0B21390A5C7BD92D67A3D0070D58CAD3773FBBF4D92BAC121800FB0005A1D3C101E3016179B80C00CAF4B84F0FCBC3701CECA3BB282D726807290603501D8A58EBF16FBE1211F1E8741D76240516DA84A5643157D
310
2CB4ED04141B3C14F864CC1D2868D5425816032265992D95FAAB1BE74AD0DFDAE0AE2018E986EBB018090AAD04F40D7DD6A61EE15428A499D24140E768B9840257AAC236788E89D0CEC9E1CBB8A2E7F186EAA27F4CBB672FE67702CEC184406A169A0E46465D8A47E13D8D6226F8B72A9C4A1818896FB33689BB925182EF8C
310
180005C7CE52F1F0F6C30A39A86D87B2609B27FD9AD2AE30A7F750F08615F18F1E7AA9BAC0212C04F49272BA39590EB07B551F1E2173B2F7D80F9A787CEF0F239A5C95091EE7AD1A3F08642C38E548B91CB827156E16FBC8CAB85A7E595D6A4E4231AB65F15196C82C968A0401574D5DB899D1C06BAC0205CD8DB05011B5C0
310
2E02986800560CE04C404917192A4D7A0830CAD37EE5324A402861BDC3052A6B713C152EC88E544520838105BBC35416B31225567788697DD14D99898E5950B0FC55A1734BAAEB8ED7A69B15262A42C47CC42B6D9CDDFDB3F03337E7986801836BE5C94CFEC2FB4E805766B12E7A3559C0F03753B6FFC40208E87941C9EF8A
310
4488CE85D750BFF35BA346058D3589108E79D0D3D459FECF95C13301840AD16BF705FA37C7B672D06FDD1C60E52AE07F44A71FBE72DC170FE7019B04347AC48A5A60E2BA42C240D4E78392F9740BE020E987282B6D6E269A1EE66D014E2A64DD41E8F3B430069462BFB13FEA1D6CE06F673C40402DE42DDA58893683519BF9
310
B522A91E60DF0C1FD92163C84D869741FAED865781F14A02CFEBC0C0F9B7EB96414216E954576CF93A101B2FF71210BF618E8A04B0EF1217CABFFE1470A905348A0F674963DF0549A2A04D0015C5A0C2BA8ECE5E920A7FF02045C0757940B5F2B113865A5A074335FFE710E0644CDB8F10003E15BF4000A5537FDDB2F88504
310
AC3480B5047C084AE3FF0502CAC75EBF9F00CA2F99D8FE031DE08104B4A667B573DFDF4E00615FF87A02682CD9674A24B710E0BA42F83EC3CF2420CA4154A7F91502D844802B63317EF8EE4E02363B004485CAB8CEB156F6BA2C1BDC986CC14F23A0E136B0E076E9B3C7FF13041497FDC7131058093A13DF8744BA403AD839
310
5B5F41C01323F64202BE71FCDFB7646BFC1ABF08D0F835FE1982C0E03330BE8980C754ED4B2D400408822008822008C23726C5EF93A0AFA3B4EF0341DB969C8CCC9E2848726430AB98DEE7E8929F8A78B766FCF1EE2A9FEC113EEF47A3901C367CEF82935C925D9BFE4C00AF7395D96F65B03F50FFD308607FD27F36309207
310
E3B177FD75C9FE3312C96326E15904BC6C383908979C074A1FA299CFF1FBF078F2EE78AAEEED60FB57F97F1404E199EBE7C71C8D130122400408822008822008822008822008822008822008822008C257E23FB36BA7BFBAED146E0000000049454E44AE426082426082815C1B0B7DE3C325AD98CB42C66F3165DA6B6CBD5B
310
E1CD59004CDD632B014B1B7865DD92598BC416924BB26BD386859F6603ECFA2DAFB5364C032016C05AFBBDDD95B4EF0424C5B2DB2590B60E24FDEFEF00F8CAF036E26488E9F4EEE678AD154B7EDA95156EA573DB57D5DF543428003F06E0AA3FAA28000220005282022000022000022000025005A094980008800008800008
310
8000BC16805C610110000110000110801703387630AF3444A9B6CA99FB7DFC8D9A5F204F500004400004805FEE981CF2FA0FA3BD4E12F32B3E9F0000000049454E44AE426082
  0
ACDSRECORD
 90
        0
  2
AcDbDs::ID
280
    10
320
22
  2
Thumbnail_Data
280
    15
 94
     2087
310
89504E470D0A1A0A0000000D4948445200000100000000900803000000D0BD45A300000300504C5445212830000000C8C8C80000000000000000000000000000000000000000000000000000330000660000990000CC0000FF0033000033330033660033990033CC0033FF0066000066330066660066990066CC0066FF0099
310
000099330099660099990099CC0099FF00CC0000CC3300CC6600CC9900CCCC00CCFF00FF0000FF3300FF6600FF9900FFCC00FFFF3300003300333300663300993300CC3300FF3333003333333333663333993333CC3333FF3366003366333366663366993366CC3366FF3399003399333399663399993399CC3399FF33CC00
310
33CC3333CC6633CC9933CCCC33CCFF33FF0033FF3333FF6633FF9933FFCC33FFFF6600006600336600666600996600CC6600FF6633006633336633666633996633CC6633FF6666006666336666666666996666CC6666FF6699006699336699666699996699CC6699FF66CC0066CC3366CC6666CC9966CCCC66CCFF66FF0066
310
FF3366FF6666FF9966FFCC66FFFF9900009900339900669900999900CC9900FF9933009933339933669933999933CC9933FF9966009966339966669966999966CC9966FF9999009999339999669999999999CC9999FF99CC0099CC3399CC6699CC9999CCCC99CCFF99FF0099FF3399FF6699FF9999FFCC99FFFFCC0000CC00
310
33CC0066CC0099CC00CCCC00FFCC3300CC3333CC3366CC3399CC33CCCC33FFCC6600CC6633CC6666CC6699CC66CCCC66FFCC9900CC9933CC9966CC9999CC99CCCC99FFCCCC00CCCC33CCCC66CCCC99CCCCCCCCCCFFCCFF00CCFF33CCFF66CCFF99CCFFCCCCFFFFFF0000FF0033FF0066FF0099FF00CCFF00FFFF3300FF3333
310
FF3366FF3399FF33CCFF33FFFF6600FF6633FF6666FF6699FF66CCFF66FFFF9900FF9933FF9966FF9999FF99CCFF99FFFFCC00FFCC33FFCC66FFCC99FFCCCCFFCCFFFFFF00FFFF33FFFF66FFFF99FFFFCCFFFFFF0000000D0D0D1A1A1A2828283535354343435050505D5D5D6B6B6B787878868686939393A1A1A1AEAEAEBB
310
BBBBC9C9C9D6D6D6E4E4E4F1F1F1FFFFFF000000000000000000000000000000000000000000000000000000000000B21171F6000004DB4944415478DAED9CC782E4200C44F9FFFF7DF73DECB44D908470C04975990ED3361442A100A71408040281402010080402814020100804021F065F6F64101004040141C0B7097804
310
4E26B77303B2570C0C17BDD1C3D9C2B30968AE4FC68A7173E4D764C665F755BD36CADF13A7D7AF2DE49F751BDAE113DB62D0DE51B6631201E4364B3D52B82C9772D870598CE59F2611C04ABAF53F49B06DB28632DC5AF27BA3FFF80661B0F4C4285F92A48ED03AB5316F7AC33CA0EA00556B7B938441DF721B02D07F50CC8A
310
36AEC871A2E7203027C65C02707F4E9301FCF7B038E69942C6A504B0F98AE2AC40B37D52EE1BA687416124D84209AED68A04B0ED8E4712B09B719938EC4CEF6F7A58A4CF2100638418708DECE7AC2A7F9864018CF8053DEBA13F4B3C33E90202B47BE2AF629C418E4103994F009A6F44CBCFCA24705F93B9C0078091D7B82F
310
F31BAFACB42A24971B4B62D0AFEF9D1932F5650502181BE4730968FD303E1186C6732F61EDAFE2512DC028ADA4597F320108DE5B094CC8395CD1438A5E9B53A0B5B3569E389D806EB25D94FC60F1085576932AD5D52D851C93986D286C358A1A954E546B243D405577B99513D4136345D9AC3F063F01034231A713E00BD9B6
310
1CB478BCD207742C6064C0399B02C3E9628D43250017041C6BC0275060CC4D6CFF80EEB57E0227D4B3A3A3A830D6C87401A90E559B366A94E6439557F70B8F938DBF1E76BFF0A55CA5CE04D5D2A894D6AF12035A17EFB5341CA930624A87AC435871759211E8FA8899BCD97900A521F8173FCAB472BE1EA04B3FFDA4B14B1F
310
9597149412C617D24E228011B987BCB8328591DEA03294AC1E45C06E55B64A898CACD25F0E33CD02C4D465ABC2A90B4D0C7BA34904C05665173D0F10D6D9ED14518E42D365F1A188E888024218542A31C47198510ED3B53BD9448C171DBBD653A9A9D52086C6516DD1A0DB9BC12D5F8C9BE929048CA67B3425AF404062DB34
310
C25A4ABB420EC0524F401D7E51DBDBDA93E9ABC3DE06B48414EA5FBE19C6B9B3EACA3C409C1B8CFA93968076763813BCC97B84364741BA2E5026408B7370ED14C0353E68E39F84F500850087CCC34C02D8799DA5F3C94B402309682EFAF444A891F1AC5A56DB3D41E606534D80A60D637717AEDD2485542B288E7D4964C529
310
5011E0135BE10A1FD03300259F2FC71FAA2EF756071872D06747010CD7D8098149E9F2BEE30F97844177619E2D86669DF574B91702E6EF131C920468EB836CC00502DACC0A27CF7166E8A254F836DDFC0A01DC8A808142BADA16AE1714EEE3694F20405ACB6A9384F712A0E7F41B34C12B09D83F03B014CC6308B865FFD572
310
F21B0418AB489F20C05A45E380AB3E91800312F7AB09F0272AB898782F01B8A68271F5071300CA2AF21B08E873E0F185AF26C0B5A32A08D8B4B3006E4740C3867E8E833E892EA6D3B3A004BE4F244296DF7FB40F38A0FFEF21C09B0D3925DC1711B06DA7CFF39C9D331B7A9AEB3E9A80F7F6FF9DA12BFA1F0444FFA3FF3B45
310
11591AFA1E014FACDE8EB780202010080402814020F0DE62EFB7F3F7B71538E50700FE0E0F64A703D2B284B46E11FE7BB458F6B8D9E5D440FDCD1D0948EBC3D5280E982C5BC497C773AFFF933FACFBB7773A7FDEEEFAE3FB1390F5926CE593F57D6E29EB3384B3A373CF25203B00953FF837EF6AF9580C1A4B598DA33D522A
310
7E1308BC5C4A78AFCC10047C9D8040201008040281402010B831FE018ADBBBD0D27FD8320000000049454E44AE426082454E44AE426082
  0
ENDSEC
  0
EOF
